找回密码

蓝光电影网

查看: 126|回复: 0

[剧情] 折磨 Torment.1944.SWEDISH.1080p.BluRay.x264.FLAC.1.0-HANDJOB 8.28GB

[复制链接]
蓝光币
519
发表于 2021-10-13 09:08:28 | 显示全部楼层 |阅读模式


◎译  名 熬煎/Torment/狂乱/狂怒/考验
◎片  名 Hets
◎年  代 1944
◎产  地 瑞典
◎类  别 剧情
◎语  言 瑞典语
◎上映日期 1944-10-02
◎豆瓣评分 7.4/10 from 555 users
◎豆瓣链接 https://movie.douban.com/subject/1300641/
◎片  长 101 分钟
◎导  演 阿尔夫·斯约堡 Alf Sj?berg
◎编  剧 英格玛·伯格曼 Ingmar Bergman
◎主  演 斯蒂格·贾雷尔 Stig J?rrel
       阿尔夫·切森 Alf Kjellin
       梅·扎特林 Mai Zetterling
       扬·莫兰德 Jan Molander
       Allan Linder Allan Linder
       比耶·马尔姆斯滕 Birger Malmsten
       Richard Lund Richard Lund
       Nils Hultgren Nils Hultgren
       Lennart Nyberg Lennart Nyberg
       Anna Olin Anna Olin
       Anders Nystr?m Anders Nystr?m
       Olav Riégo Olav Riégo
       Arne Ragneborn Arne Ragneborn
       Greta Stave Greta Stave
       Bertil Sohlberg Bertil Sohlberg
       John Zacharias John Zacharias
       Olof Winnerstrand Olof Winnerstrand
       Palle Granditsky Palle Granditsky
       Torsten Hillberg Torsten Hillberg
       古纳尔·布约恩施特兰德 Gunnar Bj?rnstrand
       斯蒂格·奥林 Stig Olin
       英格玛·伯格曼 Ingmar Bergman
       M?rta Arbin M?rta Arbin
       卡尔-奥洛夫·阿尔姆 Carl-Olof Alm
       希尔达·博里斯特伦 Hilda Borgstr?m
       Rolf Bergstr?m Rolf Bergstr?m
       Hugo Bj?rne Hugo Bj?rne
       Bengt Dalunde Bengt Dalunde
       Bengt Carenborg Bengt Carenborg
       Nils Dahlgren Nils Dahlgren
       约斯塔·塞德隆德 G?sta Cederlund
       Curt Edgard Curt Edgard
       Sten Gester Sten Gester
       Gustaf Hedstr?m Gustaf Hedstr?m
◎标  签 瑞典 | 英格玛·伯格曼 | IngmarBergman | 瑞典电影 | 1944 | 伯格曼 | Ingmar_Bergman | 黑白
◎简  介


  中门生埃里克(克吉林)爱上了年轻的贝尔塔,与她同享了初恋的兴趣。可是一个埃里克不熟悉的汉子使他们之间的关系覆盖上了一层阴影。这个汉子用性凌虐的方式熬煎贝尔塔,但埃里克始终不晓得这小我的身份。一天埃里克发现贝尔塔死了,她是自杀的。在她的住处,埃里克碰见了他的拉丁语教员( 雅莱尔),这人被他的门生称作“卡里古拉”——历史上一个淫荡、残暴的罗马天子的名字。他虽然没有亲手杀死贝尔诺,但正是他促进了她的灭亡,他应当对这件事承当义务。由于贝尔塔的灭亡,埃里克从一个对他来说毫无希望的恋爱中摆脱出来。
◎获奖情况
  第8届威尼斯电影节 ?(1947)
  国际奖国际电影大奖(提名) 阿尔夫·斯约堡
  1. Video
  2. ID                                       : 1
  3. Format                                   : AVC
  4. Format/Info                              : Advanced Video Codec
  5. Format profile                           : [email protected]
  6. Format settings                          : CABAC / 5 Ref Frames
  7. Format settings, CABAC                   : Yes
  8. Format settings, Reference frames        : 5 frames
  9. Codec ID                                 : V_MPEG4/ISO/AVC
  10. Duration                                 : 1 h 41 min
  11. Bit rate                                 : 11.4 Mb/s
  12. Width                                    : 1 472 pixels
  13. Height                                   : 1 080 pixels
  14. Display aspect ratio                     : 4:3
  15. Frame rate mode                          : Constant
  16. Frame rate                               : 24.000 FPS
  17. Color space                              : YUV
  18. Chroma subsampling                       : 4:2:0
  19. Bit depth                                : 8 bits
  20. Scan type                                : Progressive
  21. Bits/(Pixel*Frame)                       : 0.297
  22. Stream size                              : 8.01 GiB (97%)
  23. Writing library                          : x264 core 157 r2935 545de2f
  24. Encoding settings                        : cabac=1 / ref=5 / deblock=1:-3:-3 / analyse=0x3:0x133 / me=umh / subme=10 / psy=1 / psy_rd=1.00:0.00 / mixed_ref=1 / me_range=32 / chroma_me=1 / trellis=2 / 8x8dct=1 / cqm=0 / deadzone=21,11 / fast_pskip=0 / chroma_qp_offset=-2 / threads=34 / lookahead_threads=8 / sliced_threads=0 / nr=0 / decimate=0 / interlaced=0 / bluray_compat=0 / constrained_intra=0 / bframes=16 / b_pyramid=2 / b_adapt=2 / b_bias=0 / direct=3 / weightb=1 / open_gop=0 / weightp=2 / keyint=240 / keyint_min=24 / scenecut=40 / intra_refresh=0 / rc_lookahead=60 / rc=crf / mbtree=0 / crf=19.8 / qcomp=0.60 / qpmin=0 / qpmax=69 / qpstep=4 / vbv_maxrate=62500 / vbv_bufsize=78125 / crf_max=0.0 / nal_hrd=none / filler=0 / ip_ratio=1.40 / pb_ratio=1.30 / aq=2:1.00
  25. Default                                  : Yes
  26. Forced                                   : No
  27. Color range                              : Limited
  28. Color primaries                          : BT.709
  29. Transfer characteristics                 : BT.709
  30. Matrix coefficients                      : BT.709
  31. Audio #1
  32. ID                                       : 2
  33. Format                                   : FLAC
  34. Format/Info                              : Free Lossless Audio Codec
  35. Codec ID                                 : A_FLAC
  36. Duration                                 : 1 h 41 min
  37. Bit rate mode                            : Variable
  38. Bit rate                                 : 301 kb/s
  39. Channel(s)                               : 1 channel
  40. Channel layout                           : C
  41. Sampling rate                            : 48.0 kHz
  42. Frame rate                               : 11.719 FPS (4096 SPF)
  43. Bit depth                                : 16 bits
  44. Compression mode                         : Lossless
  45. Stream size                              : 217 MiB (3%)
  46. Writing library                          : libFLAC 1.2.1 (UTC 2007-09-17)
  47. Language                                 : Swedish
  48. Default                                  : Yes
  49. Forced                                   : No
  50. Audio #2
  51. ID                                       : 3
  52. Format                                   : AAC LC
  53. Format/Info                              : Advanced Audio Codec Low Complexity
  54. Codec ID                                 : A_AAC-2
  55. Duration                                 : 1 h 41 min
  56. Bit rate                                 : 75.5 kb/s
  57. Channel(s)                               : 2 channels
  58. Channel layout                           : L R
  59. Sampling rate                            : 48.0 kHz
  60. Frame rate                               : 46.875 FPS (1024 SPF)
  61. Compression mode                         : Lossy
  62. Stream size                              : 54.6 MiB (1%)
  63. Title                                    : The Guardian interview with Ingmar Bergman
  64. Language                                 : English
  65. Default                                  : No
  66. Forced                                   : No
  67. Text #1
  68. ID                                       : 4
  69. Format                                   : UTF-8
  70. Codec ID                                 : S_TEXT/UTF8
  71. Codec ID/Info                            : UTF-8 Plain Text
  72. Duration                                 : 1 h 39 min
  73. Bit rate                                 : 41 b/s
  74. Count of elements                        : 1084
  75. Stream size                              : 29.9 KiB (0%)
  76. Title                                    : From BFI
  77. Language                                 : English
  78. Default                                  : Yes
  79. Forced                                   : No
  80. Text #2
  81. ID                                       : 5
  82. Format                                   : UTF-8
  83. Codec ID                                 : S_TEXT/UTF8
  84. Codec ID/Info                            : UTF-8 Plain Text
  85. Duration                                 : 1 h 39 min
  86. Bit rate                                 : 41 b/s
  87. Count of elements                        : 923
  88. Stream size                              : 30.0 KiB (0%)
  89. Title                                    : From Criterion
  90. Language                                 : English
  91. Default                                  : No
  92. Forced                                   : No
  93. Menu
  94. 00:00:00.000                             : :Morning Prayer
  95. 00:06:35.625                             : :Caligula
  96. 00:14:35.833                             : :The Tobacconist
  97. 00:15:57.542                             : :"I See Things Differently"
  98. 00:21:49.208                             : :A Promise
  99. 00:28:48.000                             : :"A Teacher Must Care About His Boys"
  100. 00:36:17.500                             : :Bad Blood
  101. 00:45:05.250                             : :In the Shadows
  102. 00:48:52.417                             : :First Day of Exams
  103. 00:56:14.333                             : :One Week to Finals
  104. 01:02:14.042                             : :Breakdown
  105. 01:10:57.125                             : :Murder?
  106. 01:15:55.250                             : :Police Investigation
  107. 01:18:23.667                             : :"You Scared Her to Death!"
  108. 01:24:33.458                             : :Expelled
  109. 01:29:44.458                             : :Lost Soul
  110. 01:37:09.583                             : :"Turn on the Light, Widgren!"
复制代码







                                       
                                       

                                       
                                       
                                       




回复

使用道具 举报

懒得打字嘛,点击右侧快捷回复 【右侧内容,后台自定义】
您需要登录后才可以回帖 登录 | 立即加入

本版积分规则

Archiver|小黑屋| 蓝光电影网 |网站地图

Copyright © 2021 Comsenz Inc. Powered by 蓝光电影网

蓝光电影网

本站内容由用户自主分享和转载自互联网,转载目的在于传递更多信息,并不代表本网赞同其观点和对其真实性负责。

如有侵权、违反国家法律政策行为,请联系我们,我们会第一时间及时清除和处理!

举报反馈邮箱:[email protected]

快速回复 返回顶部 返回列表