找回密码

蓝光电影网

查看: 143|回复: 1

[喜剧] 黑棒大联盟 The.Bingo.Long.Traveling.All-Stars.and.Motor.Kings.1976.1080p.BluRay.x264.DTS-FGT 10.07GB

[复制链接]
蓝光币
519
发表于 2021-10-13 11:26:12 | 显示全部楼层 |阅读模式


◎译  名 黑棒大同盟
◎片  名 The Bingo Long Traveling All-Stars & Motor Kings
◎年  代 1976
◎产  地 美国
◎类  别 笑剧 / 活动
◎语  言 英语
◎上映日期 1976-07-16
◎豆瓣评分 /10 from 0 users
◎豆瓣链接 https://movie.douban.com/subject/3327497/
◎片  长 110 分钟
◎导  演 约翰·班德汉姆 John Badham
◎编  剧 马修·罗宾斯 Matthew Robbins / 哈尔·巴伍德 Hal Barwood
◎主  演 玛西亚·麦克布朗 Marcia McBroom
       特德·罗斯 Ted Ross
       斯坦·肖 Stan Shaw
       Morgan Roberts Morgan Roberts
       雷昂·华格纳 Leon Wagner
       Fred Covington Fred Covington
       理查德·普赖尔 Richard Pryor
       肯·佛瑞 Ken Foree
       詹姆斯·厄尔·琼斯 James Earl Jones
       比利·迪·威廉姆斯 Billy Dee Williams
       约翰·麦柯瑞 John McCurry
       Mabel King Mabel King
       山姆·劳斯 Sam Laws
       托尼·伯顿 Tony Burton
       安娜卡普莉 Ahna Capri
       Jophery C. Brown Jophery C. Brown
       Alvin Childress Alvin Childress
       Brooks Clift Brooks Clift
       乔尔·弗吕莱恩 Joel Fluellen
       萨丽娜·C·格兰特 Sarina C. Grant
       Emmett Ashford Emmett Ashford
       杰斯特·海尔斯顿 Jester Hairston
       Theodore Lehmann Theodore Lehmann
       Otis Day Otis Day
       Carl Gordon Carl Gordon
◎标  签 D约翰·班德汉姆 | 美国 | 被轻忽的电影 | 笑剧 | M美国 | Comedy | Blaxploitation
◎简  介


  暂无相关剧情先容
  1. Video
  2. ID                                       : 1
  3. Format                                   : AVC
  4. Format/Info                              : Advanced Video Codec
  5. Format profile                           : [email protected]
  6. Format settings                          : CABAC / 4 Ref Frames
  7. Format settings, CABAC                   : Yes
  8. Format settings, Reference frames        : 4 frames
  9. Codec ID                                 : V_MPEG4/ISO/AVC
  10. Duration                                 : 1 h 50 min
  11. Bit rate                                 : 11.5 Mb/s
  12. Width                                    : 1 920 pixels
  13. Height                                   : 1 040 pixels
  14. Display aspect ratio                     : 1.85:1
  15. Frame rate mode                          : Constant
  16. Frame rate                               : 23.976 (24000/1001/189150) FPS
  17. Color space                              : YUV
  18. Chroma subsampling                       : 4:2:0
  19. Bit depth                                : 8 bits
  20. Scan type                                : Progressive
  21. Bits/(Pixel*Frame)                       : 0.240
  22. Stream size                              : 8.90 GiB (88%)
  23. Writing library                          : x264 core 148 r2795M aaa9aa8
  24. Encoding settings                        : cabac=1 / ref=4 / deblock=1:-2:-2 / analyse=0x3:0x113 / me=umh / subme=9 / psy=1 / psy_rd=1.00:0.15 / mixed_ref=1 / me_range=16 / chroma_me=1 / trellis=2 / 8x8dct=1 / cqm=0 / deadzone=21,11 / fast_pskip=1 / chroma_qp_offset=-3 / threads=24 / lookahead_threads=3 / sliced_threads=0 / nr=0 / decimate=1 / interlaced=0 / bluray_compat=0 / constrained_intra=0 / bframes=3 / b_pyramid=2 / b_adapt=1 / b_bias=0 / direct=3 / weightb=1 / open_gop=0 / weightp=2 / keyint=250 / keyint_min=25 / scenecut=40 / intra_refresh=0 / rc_lookahead=50 / rc=2pass / mbtree=1 / bitrate=11500 / ratetol=1.0 / qcomp=0.60 / qpmin=0 / qpmax=69 / qpstep=4 / cplxblur=20.0 / qblur=0.5 / vbv_maxrate=31250 / vbv_bufsize=31250 / nal_hrd=none / filler=0 / ip_ratio=1.40 / aq=1:1.00
  25. Language                                 : English
  26. Default                                  : Yes
  27. Forced                                   : No
  28. Audio
  29. ID                                       : 2
  30. Format                                   : DTS
  31. Format/Info                              : Digital Theater Systems
  32. Codec ID                                 : A_DTS
  33. Duration                                 : 1 h 50 min
  34. Bit rate mode                            : Constant
  35. Bit rate                                 : 1 509 kb/s
  36. Channel(s)                               : 1 channel
  37. Channel layout                           : C
  38. Sampling rate                            : 48.0 kHz
  39. Frame rate                               : 93.750 FPS (512 SPF)
  40. Bit depth                                : 16 bits
  41. Compression mode                         : Lossy
  42. Stream size                              : 1.17 GiB (12%)
  43. Language                                 : English
  44. Default                                  : Yes
  45. Forced                                   : No
  46. Text
  47. ID                                       : 3
  48. Format                                   : UTF-8
  49. Codec ID                                 : S_TEXT/UTF8
  50. Codec ID/Info                            : UTF-8 Plain Text
  51. Duration                                 : 1 h 50 min
  52. Bit rate                                 : 79 b/s
  53. Count of elements                        : 1537
  54. Stream size                              : 64.0 KiB (0%)
  55. Language                                 : English
  56. Default                                  : Yes
  57. Forced                                   : No
  58. Menu
  59. 00:00:00.000                             : Chapter 01
  60. 00:09:05.753                             : Chapter 02
  61. 00:18:28.524                             : Chapter 03
  62. 00:28:02.180                             : Chapter 04
  63. 00:37:33.584                             : Chapter 05
  64. 00:47:15.916                             : Chapter 06
  65. 00:54:49.244                             : Chapter 07
  66. 01:04:50.428                             : Chapter 08
  67. 01:12:35.559                             : Chapter 09
  68. 01:21:19.082                             : Chapter 10
  69. 01:32:56.529                             : Chapter 11
  70. 01:42:11.583                             : Chapter 12
复制代码







                                       
                                       

                                       
                                       
                                       




回复

使用道具 举报

蓝光币
26
发表于 2021-10-14 06:57:20 | 显示全部楼层

感谢楼主的无私分享!要想蓝光电影网好 就靠你我他
回复 支持 反对

使用道具 举报

懒得打字嘛,点击右侧快捷回复 【右侧内容,后台自定义】
您需要登录后才可以回帖 登录 | 立即加入

本版积分规则

Archiver|小黑屋| 蓝光电影网 |网站地图

Copyright © 2021 Comsenz Inc. Powered by 蓝光电影网

蓝光电影网

本站内容由用户自主分享和转载自互联网,转载目的在于传递更多信息,并不代表本网赞同其观点和对其真实性负责。

如有侵权、违反国家法律政策行为,请联系我们,我们会第一时间及时清除和处理!

举报反馈邮箱:[email protected]

快速回复 返回顶部 返回列表