找回密码

蓝光电影网

查看: 81|回复: 1

[REMUX.HEVC] 绿衣骑士/绿骑士 The.Green.Knight.2021.2160p.BluRay.REMUX.HEVC.DTS-HD.MA.TrueHD.7.1.Atmos-FGT 70.10GB

[复制链接]
蓝光币
511
发表于 3 天前 | 显示全部楼层 |阅读模式


◎译  名 绿衣骑士/绿骑士(台)
◎片  名 The Green Knight
◎年  代 2021
◎产  地 爱尔兰,加拿大,美国,英国
◎类  别 剧情 / 奇异 / 冒险
◎语  言 英语
◎上映日期 2021-07-30(美国)
◎豆瓣评分 6.5/10 from 10163 users
◎豆瓣链接 https://movie.douban.com/subject/30372022/
◎片  长 130分钟
◎导  演 大卫·洛维 David Lowery
◎编  剧 大卫·洛维 David Lowery
◎主  演 戴夫·帕特尔 Dev Patel
       艾丽西亚·维坎德 Alicia Vikander
       萨莉塔·乔德霍里 Sarita Choudhury
       拉尔夫·伊内森 Ralph Ineson
       西恩·哈里斯 Sean Harris
       乔尔·埃哲顿 Joel Edgerton
       巴里·基奥恩 Barry Keoghan
       艾琳·凯利曼 Erin Kellyman
       雅典娜·弗里泽尔 Atheena Frizzell
       尼塔·米什拉 Nita Mishra
       塔拉·麦克唐纳 Tara McDonagh
       凯特·迪基 Kate Dickie
       阿奈·里佐 Ana?s Rizzo
       克里斯·麦克哈利姆 Chris McHallem
       乔·安德森 Joe Anderson
       Brendan Conroy Brendan Conroy
       唐查·克劳利 Donncha Crowley
       安东尼·莫里斯 Anthony Morris
       诺埃尔·布朗 Noelle Brown
◎标  签 奇异 | 美国 | 2021 | 剧情 | A24 | 惊悚 | 欧美 | 古装
◎简  介


  影片按照故事《高文爵士与绿衣骑士》改编,报告亚瑟王在自己的宫庭里举行宴会。一位绿衣骑士前来向圆桌骑士应战:有谁敢就地砍下他的头,并让他一年后回敬一斧。高文接管应战,砍下了绿衣骑士的头。那具仍然在世的躯体捡起头颅,回到绿色的教堂。一年今后,高文如约去寻觅绿衣骑士。
  1. Video
  2. ID                                       : 1
  3. ID in the original source medium         : 4113 (0x1011)
  4. Format                                   : HEVC
  5. Format/Info                              : High Efficiency Video Coding
  6. Format profile                           : Main [email protected]@High
  7. HDR format                               : Dolby Vision, Version 1.0, dvhe.07.06, BL+EL+RPU, Blu-ray compatible / SMPTE ST 2086, HDR10 compatible
  8. Codec ID                                 : V_MPEGH/ISO/HEVC
  9. Duration                                 : 2 h 9 min
  10. Bit rate                                 : 68.9 Mb/s
  11. Width                                    : 3 840 pixels
  12. Height                                   : 2 160 pixels
  13. Display aspect ratio                     : 16:9
  14. Frame rate mode                          : Constant
  15. Frame rate                               : 23.976 (24000/1001/189150) FPS
  16. Color space                              : YUV
  17. Chroma subsampling                       : 4:2:0 (Type 2)
  18. Bit depth                                : 10 bits
  19. Bits/(Pixel*Frame)                       : 0.346
  20. Stream size                              : 62.4 GiB (89%)
  21. Language                                 : English
  22. Default                                  : No
  23. Forced                                   : No
  24. Color range                              : Limited
  25. Color primaries                          : BT.2020
  26. Transfer characteristics                 : PQ
  27. Matrix coefficients                      : BT.2020 non-constant
  28. Mastering display color primaries        : BT.2020
  29. Mastering display luminance              : min: 0.0010 cd/m2, max: 1000 cd/m2
  30. Maximum Content Light Level              : 1000 cd/m2
  31. Maximum Frame-Average Light Level        : 588 cd/m2
  32. Original source medium                   : Blu-ray
  33. Audio #1
  34. ID                                       : 2
  35. ID in the original source medium         : 4352 (0x1100)
  36. Format                                   : MLP FBA 16-ch
  37. Format/Info                              : Meridian Lossless Packing FBA with 16-channel presentation
  38. Commercial name                          : Dolby TrueHD with Dolby Atmos
  39. Codec ID                                 : A_TRUEHD
  40. Duration                                 : 2 h 9 min
  41. Bit rate mode                            : Variable
  42. Bit rate                                 : 3 476 kb/s
  43. Maximum bit rate                         : 5 781 kb/s
  44. Channel(s)                               : 8 channels
  45. Channel layout                           : L R C LFE Ls Rs Lb Rb
  46. Sampling rate                            : 48.0 kHz
  47. Frame rate                               : 1 200.000 FPS (40 SPF)
  48. Bit depth                                : 24 bits
  49. Compression mode                         : Lossless
  50. Stream size                              : 3.15 GiB (4%)
  51. Title                                    : TrueHD 7.1 Atmos
  52. Language                                 : English
  53. Default                                  : Yes
  54. Forced                                   : No
  55. Original source medium                   : Blu-ray
  56. Number of dynamic objects                : 11
  57. Bed channel count                        : 1 channel
  58. Bed channel configuration                : LFE
  59. Audio #2
  60. ID                                       : 3
  61. Format                                   : DTS XLL
  62. Format/Info                              : Digital Theater Systems
  63. Commercial name                          : DTS-HD Master Audio
  64. Codec ID                                 : A_DTS
  65. Duration                                 : 2 h 9 min
  66. Bit rate mode                            : Variable
  67. Bit rate                                 : 4 070 kb/s
  68. Channel(s)                               : 8 channels
  69. Channel layout                           : C L R LFE Lb Rb Lss Rss
  70. Sampling rate                            : 48.0 kHz
  71. Frame rate                               : 93.750 FPS (512 SPF)
  72. Bit depth                                : 24 bits
  73. Compression mode                         : Lossless
  74. Stream size                              : 3.69 GiB (5%)
  75. Title                                    : DTS-HD MA 7.1
  76. Language                                 : English
  77. Default                                  : No
  78. Forced                                   : No
  79. Audio #3
  80. ID                                       : 4
  81. ID in the original source medium         : 4352 (0x1100)
  82. Format                                   : AC-3
  83. Format/Info                              : Audio Coding 3
  84. Commercial name                          : Dolby Digital
  85. Format settings                          : Dolby Surround EX
  86. Codec ID                                 : A_AC3
  87. Duration                                 : 2 h 9 min
  88. Bit rate mode                            : Constant
  89. Bit rate                                 : 640 kb/s
  90. Channel(s)                               : 6 channels
  91. Channel layout                           : L R C LFE Ls Rs
  92. Sampling rate                            : 48.0 kHz
  93. Frame rate                               : 31.250 FPS (1536 SPF)
  94. Compression mode                         : Lossy
  95. Stream size                              : 594 MiB (1%)
  96. Title                                    : DD 5.1
  97. Language                                 : English
  98. Service kind                             : Complete Main
  99. Default                                  : No
  100. Forced                                   : No
  101. Original source medium                   : Blu-ray
  102. Audio #4
  103. ID                                       : 5
  104. ID in the original source medium         : 4353 (0x1101)
  105. Format                                   : AC-3
  106. Format/Info                              : Audio Coding 3
  107. Commercial name                          : Dolby Digital
  108. Codec ID                                 : A_AC3
  109. Duration                                 : 2 h 9 min
  110. Bit rate mode                            : Constant
  111. Bit rate                                 : 192 kb/s
  112. Channel(s)                               : 2 channels
  113. Channel layout                           : L R
  114. Sampling rate                            : 48.0 kHz
  115. Frame rate                               : 31.250 FPS (1536 SPF)
  116. Compression mode                         : Lossy
  117. Stream size                              : 178 MiB (0%)
  118. Title                                    : DD 2.0
  119. Language                                 : English
  120. Service kind                             : Complete Main
  121. Default                                  : No
  122. Forced                                   : No
  123. Original source medium                   : Blu-ray
  124. Text #1
  125. ID                                       : 6
  126. Format                                   : UTF-8
  127. Codec ID                                 : S_TEXT/UTF8
  128. Codec ID/Info                            : UTF-8 Plain Text
  129. Duration                                 : 2 h 5 min
  130. Bit rate                                 : 21 b/s
  131. Count of elements                        : 783
  132. Stream size                              : 19.7 KiB (0%)
  133. Title                                    : SRT
  134. Language                                 : English
  135. Default                                  : Yes
  136. Forced                                   : No
  137. Text #2
  138. ID                                       : 7
  139. ID in the original source medium         : 4768 (0x12A0)
  140. Format                                   : PGS
  141. Muxing mode                              : zlib
  142. Codec ID                                 : S_HDMV/PGS
  143. Codec ID/Info                            : Picture based subtitle format used on BDs/HD-DVDs
  144. Duration                                 : 2 h 8 min
  145. Bit rate                                 : 19.8 kb/s
  146. Count of elements                        : 2374
  147. Stream size                              : 18.3 MiB (0%)
  148. Language                                 : English
  149. Default                                  : No
  150. Forced                                   : No
  151. Original source medium                   : Blu-ray
  152. Text #3
  153. ID                                       : 8
  154. ID in the original source medium         : 4769 (0x12A1)
  155. Format                                   : PGS
  156. Muxing mode                              : zlib
  157. Codec ID                                 : S_HDMV/PGS
  158. Codec ID/Info                            : Picture based subtitle format used on BDs/HD-DVDs
  159. Duration                                 : 2 h 9 min
  160. Bit rate                                 : 12.9 kb/s
  161. Count of elements                        : 1506
  162. Stream size                              : 11.9 MiB (0%)
  163. Language                                 : Spanish
  164. Default                                  : No
  165. Forced                                   : No
  166. Original source medium                   : Blu-ray
  167. Menu
  168. 00:00:00.000                             : Chapter 01
  169. 00:06:55.289                             : Chapter 02
  170. 00:15:04.445                             : Chapter 03
  171. 00:25:13.220                             : Chapter 04
  172. 00:32:26.611                             : Chapter 05
  173. 00:41:46.545                             : Chapter 06
  174. 00:48:36.330                             : Chapter 07
  175. 00:54:25.720                             : Chapter 08
  176. 01:02:32.623                             : Chapter 09
  177. 01:09:30.624                             : Chapter 10
  178. 01:14:43.187                             : Chapter 11
  179. 01:22:58.974                             : Chapter 12
  180. 01:30:42.145                             : Chapter 13
  181. 01:37:10.199                             : Chapter 14
  182. 01:48:51.691                             : Chapter 15
  183. 02:00:00.484                             : Chapter 16
复制代码




                                       
                                       

                                       
                                       
                                       




回复

使用道具 举报

蓝光币
1469
发表于 3 天前 | 显示全部楼层
太好啦&萬分感謝版主的無私發佈分享%
回复 支持 反对

使用道具 举报

懒得打字嘛,点击右侧快捷回复 【右侧内容,后台自定义】
您需要登录后才可以回帖 登录 | 立即加入

本版积分规则

Archiver|小黑屋| 蓝光电影网 |网站地图

Copyright © 2021 Comsenz Inc. Powered by 蓝光电影网

蓝光电影网

本站内容由用户自主分享和转载自互联网,转载目的在于传递更多信息,并不代表本网赞同其观点和对其真实性负责。

如有侵权、违反国家法律政策行为,请联系我们,我们会第一时间及时清除和处理!

举报反馈邮箱:[email protected]

快速回复 返回顶部 返回列表