找回密码

蓝光电影网

查看: 150|回复: 6

[剧情] 浪荡儿 I.Vitelloni.1953.REMASTERED.1080p.BluRay.x264-USURY 14.74GB

[复制链接]
蓝光币
519
发表于 2021-10-13 20:39:31 | 显示全部楼层 |阅读模式


◎译  名 游荡儿/The Young and the Passionate/Vitelloni/小牛(台)/流浪汉/维蒂洛尼/青春群像
◎片  名 I vitelloni
◎年  代 1953
◎产  地 意大利,法国
◎类  别 剧情 / 笑剧
◎语  言 意大利语
◎上映日期 1953-08-26(威尼斯电影节) / 1953-09-17(意大利)
◎豆瓣评分 8.4/10 from 7881 users
◎豆瓣链接 https://movie.douban.com/subject/1300779/
◎片  长 109分钟
◎导  演 费德里科·费里尼 Federico Fellini
◎编  剧 费德里科·费里尼 Federico Fellini / 恩尼奥·弗拉亚诺 Ennio Flaiano / 图里奥·皮内利 Tullio Pinelli
◎主  演 弗朗科·英特朗吉 Franco Interlenghi
       阿尔贝托·索尔迪 Alberto Sordi
       佛朗哥·法布里齐 Franco Fabrizi
       莱奥波多·特里耶斯泰 Leopoldo Trieste
       里卡尔多·费里尼 Riccardo Fellini
       莉奥诺拉·罗芙 Leonora Ruffo
       让·布罗沙尔 Jean Brochard
       Carlo Romano Carlo Romano
       Enrico Viarisio Enrico Viarisio
       保拉·布鲁布尼 Paola Borboni
       莉妲·巴洛瓦 Lída Baarová
       Vira Silenti Vira Silenti
       Achille Majeroni Achille Majeroni
       Silvio Bagolini Silvio Bagolini
       恩佐·安德罗尼科 Enzo Andronico
       里卡多·库乔拉 Riccardo Cucciolla
       莉莉亚·兰迪 Lilia Landi
       Gigetta Morano Gigetta Morano
       黎诺·图弗洛 Lino Toffolo
       克洛德·法雷尔 Claude Farell
◎标  签 意大利 | 费里尼 | 1953 | 1950s | 黑白 | 剧情 | 青春 | 笑剧
◎简  介


  影片的仆人公是年近30岁的5位年轻人,他们整天游手好闲,热衷于恶作剧并沉溺于梦幻般不切现实的计划里。其中最年长的浮士德让最年少的摩拉德的妹妹桑德拉怀了孕,基于义务心及四周人的力劝而结了婚。浮士德在一家古玩店工作,但由于恶习不改诡计蛊惑店东的妻子而被解雇。一天,桑德拉得知浮士德带着一位舞娘到一家廉价的旅店留宿,因而第二天她带着孩子离家出走;狼狈的浮士德第一次感应桑德拉的重要性。因而和她的兄弟四人拼命寻觅桑德拉的着落,终究找到桑德拉的浮士德一边遭到父亲的痛斥;一边哀告桑德拉的谅解。见到二人重建旧好的摩拉德在越日早晨不辞而别,踏上了自己的旅程。
◎获奖情况
  第30届奥斯卡金像奖 ?(1958)
  最好原创剧本(提名) 图里奥·皮内利?/?恩尼奥·弗拉亚诺?/?费德里科·费里尼
  
  第14届威尼斯电影节 ?(1953)
  主比赛单元金狮奖(提名) 费德里科·费里尼
  银狮奖最好影片 费德里科·费里尼
  1. Video
  2. ID                                       : 1
  3. Format                                   : AVC
  4. Format/Info                              : Advanced Video Codec
  5. Format profile                           : [email protected]
  6. Format settings                          : CABAC / 5 Ref Frames
  7. Format settings, CABAC                   : Yes
  8. Format settings, Reference frames        : 5 frames
  9. Codec ID                                 : V_MPEG4/ISO/AVC
  10. Duration                                 : 1 h 48 min
  11. Bit rate                                 : 18.8 Mb/s
  12. Width                                    : 1 420 pixels
  13. Height                                   : 1 080 pixels
  14. Display aspect ratio                     : 4:3
  15. Frame rate mode                          : Constant
  16. Frame rate                               : 23.976 (24000/1001/189150) FPS
  17. Color space                              : YUV
  18. Chroma subsampling                       : 4:2:0
  19. Bit depth                                : 8 bits
  20. Scan type                                : Progressive
  21. Bits/(Pixel*Frame)                       : 0.511
  22. Stream size                              : 14.3 GiB (97%)
  23. Writing library                          : x264 core 164 r3075 66a5bc1
  24. Encoding settings                        : cabac=1 / ref=5 / deblock=1:-3:-3 / analyse=0x3:0x133 / me=umh / subme=10 / psy=1 / psy_rd=1.00:0.15 / mixed_ref=1 / me_range=24 / chroma_me=1 / trellis=2 / 8x8dct=1 / cqm=0 / deadzone=21,11 / fast_pskip=1 / chroma_qp_offset=-3 / threads=18 / lookahead_threads=3 / sliced_threads=0 / nr=0 / decimate=1 / interlaced=0 / bluray_compat=0 / constrained_intra=0 / bframes=8 / b_pyramid=2 / b_adapt=2 / b_bias=0 / direct=3 / weightb=1 / open_gop=0 / weightp=2 / keyint=250 / keyint_min=23 / scenecut=40 / intra_refresh=0 / rc_lookahead=60 / rc=crf / mbtree=1 / crf=17.5 / qcomp=0.60 / qpmin=0 / qpmax=69 / qpstep=4 / ip_ratio=1.40 / aq=3:0.50
  25. Language                                 : English
  26. Default                                  : Yes
  27. Forced                                   : No

  28. Audio
  29. ID                                       : 2
  30. Format                                   : FLAC
  31. Format/Info                              : Free Lossless Audio Codec
  32. Codec ID                                 : A_FLAC
  33. Duration                                 : 1 h 48 min
  34. Bit rate mode                            : Variable
  35. Bit rate                                 : 574 kb/s
  36. Channel(s)                               : 1 channel
  37. Channel layout                           : C
  38. Sampling rate                            : 48.0 kHz
  39. Frame rate                               : 11.719 FPS (4096 SPF)
  40. Bit depth                                : 24 bits
  41. Compression mode                         : Lossless
  42. Stream size                              : 447 MiB (3%)
  43. Writing library                          : libFLAC 1.2.1 (UTC 2007-09-17)
  44. Language                                 : Italian
  45. Default                                  : Yes
  46. Forced                                   : No

  47. Text #1
  48. ID                                       : 3
  49. Format                                   : UTF-8
  50. Codec ID                                 : S_TEXT/UTF8
  51. Codec ID/Info                            : UTF-8 Plain Text
  52. Duration                                 : 1 h 46 min
  53. Bit rate                                 : 60 b/s
  54. Count of elements                        : 1301
  55. Stream size                              : 46.8 KiB (0%)
  56. Title                                    : English
  57. Language                                 : English
  58. Default                                  : Yes
  59. Forced                                   : Yes

  60. Text #2
  61. ID                                       : 4
  62. Format                                   : PGS
  63. Muxing mode                              : zlib
  64. Codec ID                                 : S_HDMV/PGS
  65. Codec ID/Info                            : Picture based subtitle format used on BDs/HD-DVDs
  66. Duration                                 : 1 h 46 min
  67. Bit rate                                 : 8 636 b/s
  68. Count of elements                        : 2602
  69. Stream size                              : 6.57 MiB (0%)
  70. Title                                    : English
  71. Language                                 : English
  72. Default                                  : No
  73. Forced                                   : No

  74. Menu
  75. 00:00:00.000                             : en:00:00:00.000
  76. 00:02:17.804                             : en:00:02:17.804
  77. 00:08:33.221                             : en:00:08:33.221
  78. 00:13:46.200                             : en:00:13:46.200
  79. 00:17:24.252                             : en:00:17:24.252
  80. 00:25:35.993                             : en:00:25:35.993
  81. 00:29:04.910                             : en:00:29:04.910
  82. 00:33:21.583                             : en:00:33:21.583
  83. 00:36:01.493                             : en:00:36:01.493
  84. 00:42:46.105                             : en:00:42:46.105
  85. 00:52:31.065                             : en:00:52:31.065
  86. 00:58:32.592                             : en:00:58:32.592
  87. 01:02:17.776                             : en:01:02:17.776
  88. 01:05:54.450                             : en:01:05:54.450
  89. 01:13:17.935                             : en:01:13:17.935
  90. 01:14:41.852                             : en:01:14:41.852
  91. 01:17:48.163                             : en:01:17:48.163
  92. 01:19:43.612                             : en:01:19:43.612
  93. 01:28:10.619                             : en:01:28:10.619
  94. 01:31:07.587                             : en:01:31:07.587
  95. 01:34:45.722                             : en:01:34:45.722
  96. 01:42:48.120                             : en:01:42:48.120
  97. 01:46:26.964                             : en:01:46:26.964
复制代码





                                       
                                       

                                       
                                       
                                       




回复

使用道具 举报

蓝光币
269
发表于 2021-10-13 23:29:04 | 显示全部楼层
楼主发贴辛苦了,谢谢楼主分享!我觉得蓝光电影网是注册对了!
回复 支持 反对

使用道具 举报

蓝光币
0
发表于 2021-10-14 06:57:06 | 显示全部楼层
大师的电影,不知能不能找到字幕看懂。感谢分享。
回复 支持 反对

使用道具 举报

蓝光币
124
发表于 2021-10-14 07:52:25 | 显示全部楼层
楼主发贴辛苦了,谢谢楼主分享!我觉得蓝光电影网是注册对了!
回复 支持 反对

使用道具 举报

蓝光币
2
发表于 2021-10-14 08:17:38 | 显示全部楼层
楼主发贴辛苦了,谢谢楼主分享!我觉得蓝光电影网是注册对了!
回复 支持 反对

使用道具 举报

蓝光币
33
发表于 2021-10-14 13:39:41 | 显示全部楼层

楼主太厉害了!楼主,电影应该很好看我觉得蓝光电影网真是个好地方!
回复 支持 反对

使用道具 举报

蓝光币
32
发表于 2021-10-14 17:39:45 | 显示全部楼层
谢谢楼主分享
回复 支持 反对

使用道具 举报

懒得打字嘛,点击右侧快捷回复 【右侧内容,后台自定义】
您需要登录后才可以回帖 登录 | 立即加入

本版积分规则

Archiver|小黑屋| 蓝光电影网 |网站地图

Copyright © 2021 Comsenz Inc. Powered by 蓝光电影网

蓝光电影网

本站内容由用户自主分享和转载自互联网,转载目的在于传递更多信息,并不代表本网赞同其观点和对其真实性负责。

如有侵权、违反国家法律政策行为,请联系我们,我们会第一时间及时清除和处理!

举报反馈邮箱:[email protected]

快速回复 返回顶部 返回列表