找回密码

蓝光电影网

查看: 166|回复: 0

[动作] 门徒 The.Protege.2021.1080p.US.BluRay.x264.DTS-MT 10.55GB

[复制链接]
蓝光币
519
发表于 2021-10-14 09:12:50 | 显示全部楼层 |阅读模式


◎译  名 徒弟/The Asset/The Protege/刺客密令(台)/复仇杀姬(港)/有价之人/资产
◎片  名 The Protégé
◎年  代 2021
◎产  地 美国
◎类  别 行动 / 惊悚 / 犯罪
◎语  言 英语
◎上映日期 2021-08-20(美国)
◎豆瓣评分 5.7/10 from 3352 users
◎豆瓣链接 https://movie.douban.com/subject/34881663/
◎片  长 109分钟
◎导  演 马丁·坎贝尔 Martin Campbell
◎编  剧 理查德·温克 Richard Wenk
◎主  演 李美琪 Maggie Q
       迈克尔·基顿 Michael Keaton
       塞缪尔·杰克逊 Samuel L. Jackson
       大卫·瑞托 David Rintoul
       帕特里克·麦拉海德 Patrick Malahide
       雷·费隆 Ray Fearon
       奥利·普费弗 Ori Pfeffer
       罗伯特·帕特里克 Robert Patrick
       小弗洛林·皮尔斯齐 Florin Piersic Jr.
       杜铎·奇里拉 Tudor Chirila
       沃利扎·比尼夫 Velizar Binev
       乔治·皮斯特拉努 George Pistereanu
       伊娃·努金·索森 Eva Nugyen Thorsen
       亚历克斯·博尔达 Alex Bordea
       塔尼娅·凯勒 Tanja Keller
       塔伊·阿特沃尔 Taj Atwal
       卡罗琳·朗奎 Caroline Loncq
       丽琪达·卡里 Richenda Carey
       大卫·斯特恩 David Sterne
       杰克·德格斯 Jack Derges
       唐·迈克尔·保罗 Don Michael Paul
       叶卡捷琳娜·贝克 Ekaterina Baker
◎标  签 行动 | 杀手 | 美国 | 犯罪 | 2021 | 女性 | 惊悚 | 剧情
◎简  介


  故事围绕伦勃朗(基顿饰)和安娜(李美琪饰)展开,这两个天下上最顶级的杀手将揭穿一段发生在越南的奥秘往事。多年来,他们游遍全球来相互争取最抢手的条约。但当安娜的导师穆迪(杰克逊饰)被谋杀时,她和伦勃朗必须缔盟,返回越南追捕凶手。
  1. Video
  2. ID                                       : 1
  3. Format                                   : AVC
  4. Format/Info                              : Advanced Video Codec
  5. Format profile                           : [email protected]
  6. Format settings                          : CABAC / 5 Ref Frames
  7. Format settings, CABAC                   : Yes
  8. Format settings, Reference frames        : 5 frames
  9. Codec ID                                 : V_MPEG4/ISO/AVC
  10. Duration                                 : 1 h 48 min
  11. Bit rate                                 : 12.4 Mb/s
  12. Width                                    : 1 920 pixels
  13. Height                                   : 802 pixels
  14. Display aspect ratio                     : 2.40:1
  15. Frame rate mode                          : Constant
  16. Frame rate                               : 23.976 (24000/1001/189150) FPS
  17. Color space                              : YUV
  18. Chroma subsampling                       : 4:2:0
  19. Bit depth                                : 8 bits
  20. Scan type                                : Progressive
  21. Bits/(Pixel*Frame)                       : 0.335
  22. Stream size                              : 9.40 GiB (89%)
  23. Writing library                          : x264 core 157 r2938 2b00a84 [email protected] Mod
  24. Encoding settings                        : cabac=1 / ref=5 / deblock=1:-3:-3 / analyse=0x3:0x133 / me=umh / subme=10 / psy=1 / psy_rd=1.05:0.00 / mixed_ref=1 / me_range=32 / chroma_me=1 / trellis=2 / 8x8dct=1 / cqm=0 / deadzone=21,11 / fast_pskip=0 / chroma_qp_offset=-2 / threads=12 / lookahead_threads=2 / sliced_threads=0 / nr=0 / decimate=0 / interlaced=0 / bluray_compat=0 / constrained_intra=0 / bframes=8 / b_pyramid=2 / b_adapt=2 / b_bias=0 / direct=3 / weightb=1 / open_gop=0 / weightp=2 / keyint=250 / keyint_min=24 / scenecut=40 / intra_refresh=0 / rc_lookahead=250 / rc=crf / mbtree=0 / crf=16.8 / qcomp=0.60 / qpmin=0 / qpmax=69 / qpstep=4 / vbv_maxrate=62500 / vbv_bufsize=78125 / crf_max=0.0 / nal_hrd=none / filler=0 / ip_ratio=1.30 / pb_ratio=1.20 / aq=3:0.80
  25. Language                                 : English
  26. Default                                  : Yes
  27. Forced                                   : No
  28. Color range                              : Limited
  29. Color primaries                          : BT.709
  30. Matrix coefficients                      : BT.709
  31. Audio
  32. ID                                       : 2
  33. Format                                   : DTS
  34. Format/Info                              : Digital Theater Systems
  35. Codec ID                                 : A_DTS
  36. Duration                                 : 1 h 48 min
  37. Bit rate mode                            : Constant
  38. Bit rate                                 : 1 509 kb/s
  39. Channel(s)                               : 6 channels
  40. Channel layout                           : C L R Ls Rs LFE
  41. Sampling rate                            : 48.0 kHz
  42. Frame rate                               : 93.750 FPS (512 SPF)
  43. Bit depth                                : 24 bits
  44. Compression mode                         : Lossy
  45. Stream size                              : 1.15 GiB (11%)
  46. Language                                 : English
  47. Default                                  : Yes
  48. Forced                                   : No
  49. Text
  50. ID                                       : 3
  51. Format                                   : UTF-8
  52. Codec ID                                 : S_TEXT/UTF8
  53. Codec ID/Info                            : UTF-8 Plain Text
  54. Duration                                 : 1 h 36 min
  55. Bit rate                                 : 36 b/s
  56. Count of elements                        : 786
  57. Stream size                              : 26.2 KiB (0%)
  58. Title                                    : SRT
  59. Language                                 : English
  60. Default                                  : Yes
  61. Forced                                   : No
  62. Menu
  63. 00:00:00.000                             : Chapter 01
  64. 00:03:42.848                             : Chapter 02
  65. 00:11:16.301                             : Chapter 03
  66. 00:20:44.285                             : Chapter 04
  67. 00:25:32.489                             : Chapter 05
  68. 00:31:32.474                             : Chapter 06
  69. 00:37:53.771                             : Chapter 07
  70. 00:46:41.632                             : Chapter 08
  71. 00:51:49.315                             : Chapter 09
  72. 00:54:49.620                             : Chapter 10
  73. 00:59:55.926                             : Chapter 11
  74. 01:05:41.271                             : Chapter 12
  75. 01:12:48.739                             : Chapter 13
  76. 01:18:25.993                             : Chapter 14
  77. 01:25:31.293                             : Chapter 15
  78. 01:34:57.817                             : Chapter 16
复制代码







                                       
                                       

                                       
                                       
                                       




回复

使用道具 举报

懒得打字嘛,点击右侧快捷回复 【右侧内容,后台自定义】
您需要登录后才可以回帖 登录 | 立即加入

本版积分规则

Archiver|小黑屋| 蓝光电影网 |网站地图

Copyright © 2021 Comsenz Inc. Powered by 蓝光电影网

蓝光电影网

本站内容由用户自主分享和转载自互联网,转载目的在于传递更多信息,并不代表本网赞同其观点和对其真实性负责。

如有侵权、违反国家法律政策行为,请联系我们,我们会第一时间及时清除和处理!

举报反馈邮箱:[email protected]

快速回复 返回顶部 返回列表