找回密码

蓝光电影网

查看: 134|回复: 0

[剧情] 八部半 Eight.and.a.Half.1963.REMASTERED.1080p.BluRay.x264-USURY 16.11GB

[复制链接]
蓝光币
519
发表于 2021-10-14 09:34:28 | 显示全部楼层 |阅读模式


◎译  名 八部半/Eight and a Half/Federico Fellini's 8 1/2/八又二分之一
◎片  名 8?
◎年  代 1963
◎产  地 意大利,法国
◎类  别 剧情
◎语  言 意大利语,法语,英语,德语
◎上映日期 1963-02-16(意大利)
◎豆瓣评分 8.6/10 from 46314 users
◎豆瓣链接 https://movie.douban.com/subject/1361276/
◎片  长 138分钟
◎导  演 费德里科·费里尼 Federico Fellini
◎编  剧 费德里科·费里尼 Federico Fellini / 恩尼奥·弗拉亚诺 Ennio Flaiano / 图里奥·皮内利 Tullio Pinelli / 布鲁内洛·龙迪 Brunello Rondi
◎主  演 马塞洛·马斯楚安尼 Marcello Mastroianni
       克劳迪娅·卡汀娜 Claudia Cardinale
       阿努克·艾梅 Anouk Aimée
       桑德拉·米洛 Sandra Milo
       罗塞拉·法鲁克 Rossella Falk
       芭芭拉·斯蒂尔 Barbara Steele
       玛德琳·勒博 Madeleine Lebeau
       卡特丽娜·波拿托 Caterina Boratto
       埃达·盖尔 Eddra Gale
       圭多·阿尔贝蒂 Guido Alberti
       Jean Rougeul Jean Rougeul
       马里奥·皮苏 Mario Pisu
       米诺·多罗 Mino Doro
       Nadia Sanders Nadia Sanders
       Georgia Simmons Georgia Simmons
       Rossella Como Rossella Como
       马克贺伦 Mark Herron
       Marisa Colomber Marisa Colomber
       Neil Robinson Neil Robinson
       Eugene Walter Eugene Walter
       Gilda Dahlberg Gilda Dahlberg
       Francesco Rigamonti Francesco Rigamonti
       Giuditta Rissone Giuditta Rissone
       安尼巴莱·宁基 Annibale Ninchi
       安东尼奥·阿夸 Antonio Acqua
       玛利亚·安东涅塔·贝卢齐 Maria Antonietta Beluzzi
       Mathilda Calnan Mathilda Calnan
       朱利奥·卡利 Giulio Calì
       佛朗哥·卡拉乔洛 Franco Caracciolo
       Olimpia Cavalli Olimpia Cavalli
       Sonia Gessner Sonia Gessner
       约翰·卡尔森 John Karlsen
       Roberto Nicolosi Roberto Nicolosi
       波利多尔 Polidor
       尼诺·罗塔 Nino Rota
       John Stacy John Stacy
       玛利亚·特德斯奇 Maria Tedeschi
       艾迪·韦瑟 Edy Vessel
       Edward Fleming Edward Fleming
◎标  签 意大利 | 费里尼 | 意大利电影 | 典范 | 1963 | 费德里科·费里尼 | FedericoFellini | 剧情
◎简  介


  电影导演圭多(马塞洛·马斯楚安尼 Marcello Mastroianni 饰)在完成了一部影片以后感应精疲力竭,他来到一处疗养地休息,同时起头构想下一部电影。他遭到噩梦的困扰,精神不振,灵感也堕入障碍。他让情妇卡拉(桑德拉·米洛 Sandra Milo 饰)也来到疗养地和他作伴,但卡拉的到来反而增加了他的懊恼。此时,布满生气的年轻女郎克劳迪娅(克劳迪娅·卡汀娜 Claudia Cardinale 饰)的出现,令圭多压制的天下乍现出一抹亮色。但是随着圭多妻子路易莎(阿努克·艾梅 Anouk Aimée 饰)以及很多电影圈人士纷纷来到疗养地,圭多不胜忍受小我豪情生活的紊乱与电影拍摄的两重压力,他的精神危机愈演愈烈,梦乡与幻觉不竭侵入他的现实生活……
  
  本片荣获1964年奥斯卡最好外语片和最好打扮设想(黑白片)两项大奖。
◎获奖情况
  第36届奥斯卡金像奖 ?(1964)
  最好导演(提名) 费德里科·费里尼
  最好原创剧本(提名) 图里奥·皮内利?/?恩尼奥·弗拉亚诺?/?布鲁内洛·龙迪?/?费德里科·费里尼
  最好外语片
  黑白片最好艺术指导和布景(提名) 皮耶罗·格拉尔迪
  黑白片最好打扮设想 皮耶罗·格拉尔迪
  1. Video
  2. ID                                       : 1
  3. Format                                   : AVC
  4. Format/Info                              : Advanced Video Codec
  5. Format profile                           : [email protected]
  6. Format settings                          : CABAC / 4 Ref Frames
  7. Format settings, CABAC                   : Yes
  8. Format settings, Reference frames        : 4 frames
  9. Codec ID                                 : V_MPEG4/ISO/AVC
  10. Duration                                 : 2 h 19 min
  11. Bit rate                                 : 15.8 Mb/s
  12. Width                                    : 1 920 pixels
  13. Height                                   : 1 038 pixels
  14. Display aspect ratio                     : 1.85:1
  15. Frame rate mode                          : Constant
  16. Frame rate                               : 23.976 (24000/1001/189150) FPS
  17. Color space                              : YUV
  18. Chroma subsampling                       : 4:2:0
  19. Bit depth                                : 8 bits
  20. Scan type                                : Progressive
  21. Bits/(Pixel*Frame)                       : 0.331
  22. Stream size                              : 15.4 GiB (96%)
  23. Writing library                          : x264 core 164 r3075 66a5bc1
  24. Encoding settings                        : cabac=1 / ref=4 / deblock=1:-3:-3 / analyse=0x3:0x133 / me=umh / subme=10 / psy=1 / psy_rd=1.00:0.15 / mixed_ref=1 / me_range=24 / chroma_me=1 / trellis=2 / 8x8dct=1 / cqm=0 / deadzone=21,11 / fast_pskip=1 / chroma_qp_offset=-3 / threads=18 / lookahead_threads=3 / sliced_threads=0 / nr=0 / decimate=1 / interlaced=0 / bluray_compat=0 / constrained_intra=0 / bframes=8 / b_pyramid=2 / b_adapt=2 / b_bias=0 / direct=3 / weightb=1 / open_gop=0 / weightp=2 / keyint=250 / keyint_min=23 / scenecut=40 / intra_refresh=0 / rc_lookahead=60 / rc=crf / mbtree=1 / crf=18.5 / qcomp=0.60 / qpmin=0 / qpmax=69 / qpstep=4 / ip_ratio=1.40 / aq=3:0.50
  25. Language                                 : English
  26. Default                                  : Yes
  27. Forced                                   : No

  28. Audio #1
  29. ID                                       : 2
  30. Format                                   : FLAC
  31. Format/Info                              : Free Lossless Audio Codec
  32. Codec ID                                 : A_FLAC
  33. Duration                                 : 2 h 19 min
  34. Bit rate mode                            : Variable
  35. Bit rate                                 : 635 kb/s
  36. Channel(s)                               : 1 channel
  37. Channel layout                           : C
  38. Sampling rate                            : 48.0 kHz
  39. Frame rate                               : 11.719 FPS (4096 SPF)
  40. Bit depth                                : 24 bits
  41. Compression mode                         : Lossless
  42. Stream size                              : 634 MiB (4%)
  43. Writing library                          : libFLAC 1.2.1 (UTC 2007-09-17)
  44. Language                                 : Italian
  45. Default                                  : Yes
  46. Forced                                   : No

  47. Audio #2
  48. ID                                       : 3
  49. Format                                   : AAC LC
  50. Format/Info                              : Advanced Audio Codec Low Complexity
  51. Codec ID                                 : A_AAC-2
  52. Duration                                 : 2 h 19 min
  53. Bit rate                                 : 62.1 kb/s
  54. Channel(s)                               : 1 channel
  55. Channel layout                           : C
  56. Sampling rate                            : 48.0 kHz
  57. Frame rate                               : 46.875 FPS (1024 SPF)
  58. Compression mode                         : Lossy
  59. Delay relative to video                  : 9 ms
  60. Stream size                              : 61.9 MiB (0%)
  61. Title                                    : English Commentary by Gideon Bachmann and Antonio Monda
  62. Language                                 : English
  63. Default                                  : No
  64. Forced                                   : No

  65. Text #1
  66. ID                                       : 4
  67. Format                                   : UTF-8
  68. Codec ID                                 : S_TEXT/UTF8
  69. Codec ID/Info                            : UTF-8 Plain Text
  70. Duration                                 : 2 h 11 min
  71. Bit rate                                 : 65 b/s
  72. Count of elements                        : 1790
  73. Stream size                              : 63.1 KiB (0%)
  74. Title                                    : English
  75. Language                                 : English
  76. Default                                  : Yes
  77. Forced                                   : Yes

  78. Text #2
  79. ID                                       : 5
  80. Format                                   : PGS
  81. Muxing mode                              : zlib
  82. Codec ID                                 : S_HDMV/PGS
  83. Codec ID/Info                            : Picture based subtitle format used on BDs/HD-DVDs
  84. Duration                                 : 2 h 11 min
  85. Bit rate                                 : 9 398 b/s
  86. Count of elements                        : 3580
  87. Stream size                              : 8.87 MiB (0%)
  88. Title                                    : English
  89. Language                                 : English
  90. Default                                  : No
  91. Forced                                   : No

  92. Menu
  93. 00:00:00.000                             : en:00:00:00.000
  94. 00:04:02.784                             : en:00:04:02.784
  95. 00:09:19.934                             : en:00:09:19.934
  96. 00:13:17.714                             : en:00:13:17.714
  97. 00:20:54.587                             : en:00:20:54.587
  98. 00:24:01.774                             : en:00:24:01.774
  99. 00:29:27.933                             : en:00:29:27.933
  100. 00:36:44.494                             : en:00:36:44.494
  101. 00:40:22.378                             : en:00:40:22.378
  102. 00:44:24.829                             : en:00:44:24.829
  103. 00:49:34.346                             : en:00:49:34.346
  104. 00:53:52.396                             : en:00:53:52.396
  105. 00:56:12.369                             : en:00:56:12.369
  106. 00:59:06.543                             : en:00:59:06.543
  107. 01:05:19.499                             : en:01:05:19.499
  108. 01:08:42.285                             : en:01:08:42.285
  109. 01:14:32.635                             : en:01:14:32.635
  110. 01:19:24.218                             : en:01:19:24.218
  111. 01:26:05.577                             : en:01:26:05.577
  112. 01:29:50.010                             : en:01:29:50.010
  113. 01:33:24.224                             : en:01:33:24.224
  114. 01:39:03.229                             : en:01:39:03.229
  115. 01:47:19.224                             : en:01:47:19.224
  116. 01:57:07.687                             : en:01:57:07.687
  117. 02:03:00.331                             : en:02:03:00.331
  118. 02:08:09.932                             : en:02:08:09.932
  119. 02:16:58.544                             : en:02:16:58.544
复制代码





                                       
                                       

                                       
                                       
                                       




回复

使用道具 举报

懒得打字嘛,点击右侧快捷回复 【右侧内容,后台自定义】
您需要登录后才可以回帖 登录 | 立即加入

本版积分规则

Archiver|小黑屋| 蓝光电影网 |网站地图

Copyright © 2021 Comsenz Inc. Powered by 蓝光电影网

蓝光电影网

本站内容由用户自主分享和转载自互联网,转载目的在于传递更多信息,并不代表本网赞同其观点和对其真实性负责。

如有侵权、违反国家法律政策行为,请联系我们,我们会第一时间及时清除和处理!

举报反馈邮箱:[email protected]

快速回复 返回顶部 返回列表