找回密码

蓝光电影网

查看: 210|回复: 2

[其他] 悍将奇兵 Breakdown.1997.1080p.BluRay.x264-MiMiC 16.48GB

[复制链接]
蓝光币
519
发表于 2021-10-14 10:31:06 | 显示全部楼层 |阅读模式


◎译  名 悍将奇兵
◎片  名 Breakdown
◎年  代 1997
◎产  地 美国
◎类  别 悬疑 / 惊悚 / 犯罪
◎语  言 英语
◎上映日期 1997-08-28
◎豆瓣评分 7.5/10 from 2901 users
◎豆瓣链接 https://movie.douban.com/subject/1304828/
◎片  长 93 分钟
◎导  演 乔纳森·莫斯托 Jonathan Mostow
◎编  剧 乔纳森·莫斯托 Jonathan Mostow
◎主  演 库尔特·拉塞尔 Kurt Russell
       迈克·康纳·盖尼 M.C. Gainey
       凯瑟琳·奎南 Kathleen Quinlan
       Gene Hartline Gene Hartline
       Vincent Berry Vincent Berry
       杰克·诺斯沃迪 Jack Noseworthy
       J·T·沃尔什 J.T. Walsh
       里奇·布林克利 Ritch Brinkley
       Alitzah Alitzah
       瑞克斯·林恩 Rex Linn
       托马斯·科帕切 Thomas Kopache
       Ancel Cook Ancel Cook
       茉拉哈瑞斯 Moira Harris
◎标  签 美国 | 犯罪 | 公路 | 惊悚 | 悬疑 | 行动 | 1997 | 美国电影
◎简  介


  杰夫(库尔特·拉塞尔 Kurt Russell 饰)和艾米(凯瑟琳·奎南 Kathleen Quinlan 饰)是一对夫妻,在一次远程观光当中,两人驾驶的车辆在荒郊外岭里抛锚了。正当两人急得焦头烂额之际,一个名叫瑞德(J·T·沃尔什 J.T. Walsh 饰)的陌生汉子出现在了他们眼前。瑞德好心的告诉杰夫和艾米,在不远处有地方可以叫到拖车,杰夫边让艾米跟从瑞德前往,很快,这个毛病的决议就让杰夫支出了价格。
  
  在期待拖车的进程中,杰夫自己修睦了车,因而,他决议驱车前往瑞德所说的阿谁地方寻觅瑞德和艾米。没想到,当杰夫到达后,当地没有一小我宣称见过艾米。杰夫找到瑞德向其诘责,瑞德居然说自己不熟悉杰夫,更别提什么艾米了。敏感的杰夫发觉工作有诈,他想向警方乞助可手上没有任何证据,一时候,杰夫堕入了失望的地步。
  1. Video
  2. ID                                       : 1
  3. Format                                   : AVC
  4. Format/Info                              : Advanced Video Codec
  5. Format profile                           : [email protected]
  6. Format settings                          : CABAC / 5 Ref Frames
  7. Format settings, CABAC                   : Yes
  8. Format settings, Reference frames        : 5 frames
  9. Codec ID                                 : V_MPEG4/ISO/AVC
  10. Duration                                 : 1 h 33 min
  11. Bit rate                                 : 21.5 Mb/s
  12. Width                                    : 1 920 pixels
  13. Height                                   : 816 pixels
  14. Display aspect ratio                     : 2.35:1
  15. Frame rate mode                          : Constant
  16. Frame rate                               : 23.976 (24000/1001/189150) FPS
  17. Color space                              : YUV
  18. Chroma subsampling                       : 4:2:0
  19. Bit depth                                : 8 bits
  20. Scan type                                : Progressive
  21. Bits/(Pixel*Frame)                       : 0.572
  22. Stream size                              : 14.0 GiB (85%)
  23. Writing library                          : x264 core 164 r3065 ae03d92
  24. Encoding settings                        : cabac=1 / ref=5 / deblock=1:0:0 / analyse=0x3:0x133 / me=umh / subme=9 / psy=1 / psy_rd=1.00:0.00 / mixed_ref=1 / me_range=16 / chroma_me=1 / trellis=2 / 8x8dct=1 / cqm=0 / deadzone=21,11 / fast_pskip=0 / chroma_qp_offset=-2 / threads=25 / lookahead_threads=2 / sliced_threads=0 / nr=0 / decimate=0 / interlaced=0 / bluray_compat=0 / constrained_intra=0 / bframes=3 / b_pyramid=2 / b_adapt=2 / b_bias=0 / direct=3 / weightb=1 / open_gop=0 / weightp=2 / keyint=240 / keyint_min=23 / scenecut=40 / intra_refresh=0 / rc=crf / mbtree=0 / crf=17.6 / qcomp=0.60 / qpmin=0 / qpmax=69 / qpstep=4 / ip_ratio=1.40 / pb_ratio=1.30 / aq=1:1.00
  25. Default                                  : Yes
  26. Forced                                   : No
  27. Color range                              : Limited
  28. Matrix coefficients                      : BT.709

  29. Audio #1
  30. ID                                       : 2
  31. Format                                   : MLP FBA
  32. Format/Info                              : Meridian Lossless Packing FBA
  33. Commercial name                          : Dolby TrueHD
  34. Codec ID                                 : A_TRUEHD
  35. Duration                                 : 1 h 33 min
  36. Bit rate mode                            : Variable
  37. Bit rate                                 : 3 532 kb/s
  38. Maximum bit rate                         : 5 001 kb/s
  39. Channel(s)                               : 6 channels
  40. Channel layout                           : L R C LFE Ls Rs
  41. Sampling rate                            : 48.0 kHz
  42. Frame rate                               : 1 200.000 FPS (40 SPF)
  43. Compression mode                         : Lossless
  44. Stream size                              : 2.30 GiB (14%)
  45. Language                                 : English
  46. Default                                  : Yes
  47. Forced                                   : No

  48. Audio #2
  49. ID                                       : 3
  50. Format                                   : AAC LC
  51. Format/Info                              : Advanced Audio Codec Low Complexity
  52. Codec ID                                 : A_AAC-2
  53. Duration                                 : 1 h 33 min
  54. Bit rate                                 : 90.2 kb/s
  55. Channel(s)                               : 2 channels
  56. Channel layout                           : L R
  57. Sampling rate                            : 48.0 kHz
  58. Frame rate                               : 46.875 FPS (1024 SPF)
  59. Compression mode                         : Lossy
  60. Delay relative to video                  : 20 ms
  61. Stream size                              : 60.0 MiB (0%)
  62. Title                                    : Kurt Russel and Director\'s Commentary
  63. Language                                 : English
  64. Default                                  : Yes
  65. Forced                                   : No

  66. Audio #3
  67. ID                                       : 4
  68. Format                                   : AAC LC
  69. Format/Info                              : Advanced Audio Codec Low Complexity
  70. Codec ID                                 : A_AAC-2
  71. Duration                                 : 1 h 33 min
  72. Bit rate                                 : 116 kb/s
  73. Channel(s)                               : 2 channels
  74. Channel layout                           : L R
  75. Sampling rate                            : 48.0 kHz
  76. Frame rate                               : 46.875 FPS (1024 SPF)
  77. Compression mode                         : Lossy
  78. Delay relative to video                  : 20 ms
  79. Stream size                              : 77.1 MiB (0%)
  80. Title                                    : Isolated Score
  81. Language                                 : English
  82. Default                                  : Yes
  83. Forced                                   : No

  84. Text #1
  85. ID                                       : 5
  86. Format                                   : PGS
  87. Muxing mode                              : zlib
  88. Codec ID                                 : S_HDMV/PGS
  89. Codec ID/Info                            : Picture based subtitle format used on BDs/HD-DVDs
  90. Duration                                 : 1 h 24 min
  91. Bit rate                                 : 23.9 kb/s
  92. Count of elements                        : 1448
  93. Stream size                              : 14.4 MiB (0%)
  94. Title                                    : English
  95. Language                                 : English
  96. Default                                  : No
  97. Forced                                   : No

  98. Text #2
  99. ID                                       : 6
  100. Format                                   : PGS
  101. Muxing mode                              : zlib
  102. Codec ID                                 : S_HDMV/PGS
  103. Codec ID/Info                            : Picture based subtitle format used on BDs/HD-DVDs
  104. Duration                                 : 1 h 28 min
  105. Bit rate                                 : 26.6 kb/s
  106. Count of elements                        : 1730
  107. Stream size                              : 16.9 MiB (0%)
  108. Title                                    : English - SDH
  109. Language                                 : English
  110. Default                                  : No
  111. Forced                                   : No

  112. Text #3
  113. ID                                       : 7
  114. Format                                   : PGS
  115. Muxing mode                              : zlib
  116. Codec ID                                 : S_HDMV/PGS
  117. Codec ID/Info                            : Picture based subtitle format used on BDs/HD-DVDs
  118. Duration                                 : 1 h 32 min
  119. Bit rate                                 : 60.7 kb/s
  120. Count of elements                        : 3526
  121. Stream size                              : 40.3 MiB (0%)
  122. Title                                    : Kurt Russel and Director\'s Commentary
  123. Language                                 : English
  124. Default                                  : No
  125. Forced                                   : No

  126. Text #4
  127. ID                                       : 8
  128. Format                                   : PGS
  129. Muxing mode                              : zlib
  130. Codec ID                                 : S_HDMV/PGS
  131. Codec ID/Info                            : Picture based subtitle format used on BDs/HD-DVDs
  132. Duration                                 : 1 h 29 min
  133. Bit rate                                 : 18.2 kb/s
  134. Count of elements                        : 1650
  135. Stream size                              : 11.7 MiB (0%)
  136. Title                                    : French
  137. Language                                 : French
  138. Default                                  : No
  139. Forced                                   : No

  140. Text #5
  141. ID                                       : 9
  142. Format                                   : PGS
  143. Muxing mode                              : zlib
  144. Codec ID                                 : S_HDMV/PGS
  145. Codec ID/Info                            : Picture based subtitle format used on BDs/HD-DVDs
  146. Duration                                 : 1 h 33 min
  147. Bit rate                                 : 50.7 kb/s
  148. Count of elements                        : 3520
  149. Stream size                              : 33.7 MiB (0%)
  150. Title                                    : French Director\'s Commentary
  151. Language                                 : French
  152. Default                                  : No
  153. Forced                                   : No

  154. Text #6
  155. ID                                       : 10
  156. Format                                   : PGS
  157. Muxing mode                              : zlib
  158. Codec ID                                 : S_HDMV/PGS
  159. Codec ID/Info                            : Picture based subtitle format used on BDs/HD-DVDs
  160. Duration                                 : 1 h 27 min
  161. Bit rate                                 : 186 b/s
  162. Count of elements                        : 20
  163. Stream size                              : 119 KiB (0%)
  164. Title                                    : French - Descriptions
  165. Language                                 : French
  166. Default                                  : No
  167. Forced                                   : No

  168. Menu
  169. 00:00:00.000                             : Chapter 01
  170. 00:02:45.749                             : Chapter 02
  171. 00:03:47.352                             : Chapter 03
  172. 00:07:35.497                             : Chapter 04
  173. 00:10:30.630                             : Chapter 05
  174. 00:13:55.668                             : Chapter 06
  175. 00:15:05.446                             : Chapter 07
  176. 00:18:05.668                             : Chapter 08
  177. 00:20:50.583                             : Chapter 09
  178. 00:27:16.260                             : Chapter 10
  179. 00:28:42.346                             : Chapter 11
  180. 00:31:24.341                             : Chapter 12
  181. 00:33:19.623                             : Chapter 13
  182. 00:35:58.490                             : Chapter 14
  183. 00:39:38.376                             : Chapter 15
  184. 00:44:24.579                             : Chapter 16
  185. 00:51:12.027                             : Chapter 17
  186. 00:57:09.468                             : Chapter 18
  187. 01:00:08.355                             : Chapter 19
  188. 01:02:08.725                             : Chapter 20
  189. 01:05:23.795                             : Chapter 21
  190. 01:08:53.671                             : Chapter 22
  191. 01:12:46.612                             : Chapter 23
  192. 01:13:57.016                             : Chapter 24
  193. 01:17:09.500                             : Chapter 25
  194. 01:19:31.850                             : Chapter 26
  195. 01:21:22.920                             : Chapter 27
  196. 01:23:09.776                             : Chapter 28
  197. 01:24:56.383                             : Chapter 29
  198. 01:27:39.671                             : Chapter 30
  199. 01:29:26.403                             : Chapter 31
复制代码





                                       
                                       

                                       
                                       
                                       




回复

使用道具 举报

蓝光币
645
发表于 2021-10-14 18:06:24 | 显示全部楼层
谢谢楼主分享.
回复 支持 反对

使用道具 举报

蓝光币
2
发表于 2021-10-15 23:48:57 | 显示全部楼层
你好这个论坛的电影都是英文字幕的么?
回复 支持 反对

使用道具 举报

懒得打字嘛,点击右侧快捷回复 【右侧内容,后台自定义】
您需要登录后才可以回帖 登录 | 立即加入

本版积分规则

Archiver|小黑屋| 蓝光电影网 |网站地图

Copyright © 2021 Comsenz Inc. Powered by 蓝光电影网

蓝光电影网

本站内容由用户自主分享和转载自互联网,转载目的在于传递更多信息,并不代表本网赞同其观点和对其真实性负责。

如有侵权、违反国家法律政策行为,请联系我们,我们会第一时间及时清除和处理!

举报反馈邮箱:[email protected]

快速回复 返回顶部 返回列表