找回密码

蓝光电影网

查看: 343|回复: 4

[动作] 最后一个/最后一个男人 Last.Man.Down.2021.1080p.BluRay.x264.DTS-MT 6.08GB

[复制链接]
蓝光币
519
发表于 2021-10-14 11:40:49 | 显示全部楼层 |阅读模式


◎译  名 最初一个/最初一个汉子
◎片  名 Last Man Down
◎年  代 2021
◎产  地 瑞典,英国
◎类  别 行动
◎语  言 英语
◎上映日期 2021-10-19(美国)
◎豆瓣评分 /10 from 0 users
◎豆瓣链接 https://movie.douban.com/subject/35387584/
◎编  剧 丹尼尔·斯蒂森 Daniel Stisen
◎主  演 丹尼尔·斯蒂森 Daniel Stisen
       斯坦尼斯拉夫·雅涅夫斯基 Stanislav Ianevski
       娜塔莎·迈尔兹 Natassia Malthe
       罗伯特·福林 Robert Follin
       迈克尔·比灵顿 Michael Billington
       卡米尔·雷米泽斯基 Kamil Lemieszewski
       萨姆·哈迪 Sam Hardy
◎标  签 行动 | 瑞典 | 2021 | 英国 | 暴力 | 犯罪 | 血腥 | 斯坦尼斯拉夫·雅涅夫斯基
◎简  介


  John Wood left the pieces of a broken civilisation behind, to go back to his roots in the woodland, after a virus pandemic struck the world. Residing in a simple cabin, he only wants peace and to live in harmony with nature. Coming from a long line of timber men, he joined the army and served as a soldier for many years. Rebelling against his superiors for killing civilians under martial law. John feels he got his own wife killed when saving hundreds of innocent civilians from certain death. His wife executed point blank as retribution for John's disobedience and supposed heroic acts. Now, a young woman named Maria Johnson has escaped a pandemic research lab. She's been part of experiments to find a cure for the still raging virus. Carrying the potential cure in her blood, she is hunted by profiteers and mercenaries who knows her secret. Coming upon John's cabin in the woods, Maria is instinctively taken into shelter by John. He wants her to recover fast and leave, but by learning her...
  1. Video
  2. ID                                       : 1
  3. Format                                   : AVC
  4. Format/Info                              : Advanced Video Codec
  5. Format profile                           : [email protected]
  6. Format settings                          : CABAC / 5 Ref Frames
  7. Format settings, CABAC                   : Yes
  8. Format settings, Reference frames        : 5 frames
  9. Codec ID                                 : V_MPEG4/ISO/AVC
  10. Duration                                 : 1 h 27 min
  11. Bit rate                                 : 8 406 kb/s
  12. Width                                    : 1 920 pixels
  13. Height                                   : 752 pixels
  14. Display aspect ratio                     : 2.553
  15. Frame rate mode                          : Constant
  16. Frame rate                               : 23.976 (24000/1001/189150) FPS
  17. Color space                              : YUV
  18. Chroma subsampling                       : 4:2:0
  19. Bit depth                                : 8 bits
  20. Scan type                                : Progressive
  21. Bits/(Pixel*Frame)                       : 0.243
  22. Stream size                              : 5.15 GiB (85%)
  23. Writing library                          : x264 core 157 r2938 2b00a84 [email protected] Mod
  24. Encoding settings                        : cabac=1 / ref=5 / deblock=1:-3:-3 / analyse=0x3:0x133 / me=umh / subme=10 / psy=1 / psy_rd=1.05:0.00 / mixed_ref=1 / me_range=32 / chroma_me=1 / trellis=2 / 8x8dct=1 / cqm=0 / deadzone=21,11 / fast_pskip=0 / chroma_qp_offset=-2 / threads=12 / lookahead_threads=2 / sliced_threads=0 / nr=0 / decimate=0 / interlaced=0 / bluray_compat=0 / constrained_intra=0 / bframes=8 / b_pyramid=2 / b_adapt=2 / b_bias=0 / direct=3 / weightb=1 / open_gop=0 / weightp=2 / keyint=250 / keyint_min=24 / scenecut=40 / intra_refresh=0 / rc_lookahead=250 / rc=crf / mbtree=0 / crf=16.8 / qcomp=0.60 / qpmin=0 / qpmax=69 / qpstep=4 / vbv_maxrate=62500 / vbv_bufsize=78125 / crf_max=0.0 / nal_hrd=none / filler=0 / ip_ratio=1.30 / pb_ratio=1.20 / aq=3:0.80
  25. Language                                 : English
  26. Default                                  : Yes
  27. Forced                                   : No
  28. Color range                              : Limited
  29. Color primaries                          : BT.709
  30. Matrix coefficients                      : BT.709
  31. Audio
  32. ID                                       : 2
  33. Format                                   : DTS
  34. Format/Info                              : Digital Theater Systems
  35. Codec ID                                 : A_DTS
  36. Duration                                 : 1 h 27 min
  37. Bit rate mode                            : Constant
  38. Bit rate                                 : 1 509 kb/s
  39. Channel(s)                               : 6 channels
  40. Channel layout                           : C L R Ls Rs LFE
  41. Sampling rate                            : 48.0 kHz
  42. Frame rate                               : 93.750 FPS (512 SPF)
  43. Bit depth                                : 16 bits
  44. Compression mode                         : Lossy
  45. Stream size                              : 947 MiB (15%)
  46. Language                                 : English
  47. Default                                  : Yes
  48. Forced                                   : No
  49. Text
  50. ID                                       : 3
  51. Format                                   : UTF-8
  52. Codec ID                                 : S_TEXT/UTF8
  53. Codec ID/Info                            : UTF-8 Plain Text
  54. Duration                                 : 1 h 24 min
  55. Bit rate                                 : 22 b/s
  56. Count of elements                        : 624
  57. Stream size                              : 13.9 KiB (0%)
  58. Title                                    : SRT
  59. Language                                 : English
  60. Default                                  : Yes
  61. Forced                                   : No
  62. Menu
  63. 00:00:00.000                             : Chapter 01
  64. 00:09:48.588                             : Chapter 02
  65. 00:18:53.758                             : Chapter 03
  66. 00:27:09.503                             : Chapter 04
  67. 00:36:04.621                             : Chapter 05
  68. 00:45:36.776                             : Chapter 06
  69. 00:54:28.140                             : Chapter 07
  70. 01:02:37.170                             : Chapter 08
  71. 01:10:29.851                             : Chapter 09
  72. 01:19:50.744                             : Chapter 10
  73. 01:25:38.508                             : Chapter 11
复制代码






                                       
                                       

                                       
                                       
                                       




回复

使用道具 举报

蓝光币
28
发表于 2021-10-14 14:02:22 | 显示全部楼层
丹尼尔·斯蒂森丹尼尔·斯蒂森
回复 支持 反对

使用道具 举报

蓝光币
92
发表于 2021-10-15 08:12:20 | 显示全部楼层

楼主太厉害了!楼主,电影应该很好看我觉得蓝光电影网真是个好地方!
回复 支持 反对

使用道具 举报

蓝光币
471
发表于 2021-10-15 18:43:17 | 显示全部楼层
楼主发贴辛苦了,谢谢楼主分享!我觉得蓝光电影网是注册对了!
回复 支持 反对

使用道具 举报

蓝光币
79
发表于 2021-10-15 21:05:45 | 显示全部楼层
这东西我收了!谢谢楼主!蓝光电影网真好!
回复 支持 反对

使用道具 举报

懒得打字嘛,点击右侧快捷回复 【右侧内容,后台自定义】
您需要登录后才可以回帖 登录 | 立即加入

本版积分规则

Archiver|小黑屋| 蓝光电影网 |网站地图

Copyright © 2021 Comsenz Inc. Powered by 蓝光电影网

蓝光电影网

本站内容由用户自主分享和转载自互联网,转载目的在于传递更多信息,并不代表本网赞同其观点和对其真实性负责。

如有侵权、违反国家法律政策行为,请联系我们,我们会第一时间及时清除和处理!

举报反馈邮箱:[email protected]

快速回复 返回顶部 返回列表