找回密码

蓝光电影网

查看: 487|回复: 2

[惊悚] 第13天 Day.13.2020.1080p.BluRay.x264-FREEMAN 5.67GB

[复制链接]
蓝光币
623
发表于 2021-10-23 17:44:34 | 显示全部楼层 |阅读模式


◎译  名 第13天
◎片  名 Day 13
◎年  代 2020
◎产  地 美国
◎类  别 惊悚
◎语  言 英语
◎上映日期 2020-08-04(美国)
◎豆瓣评分 /10 from 0 users
◎豆瓣链接 https://movie.douban.com/subject/35138035/
◎主  演 马丁·科夫 Martin Kove
       吉娜维芙·汉内柳斯 Genevieve Hannelius
       达琳·沃格尔 Darlene Vogel
       亚历克斯·马克尼科尔 Alex MacNicoll
       梅里克·墨菲 Meyrick Murphy
◎标  签 惊悚
◎简  介


  17岁的Colton暑假在家里当保姆照顾妹妹。劈面老屋子里搬来新的邻人,住了一位标致的女孩Heather。Colton隔着街观察她,喜好上她,却也同时发现她的养父对她越来越粗鲁。Colton思疑养父是某个邪教撒旦构造的跟随者,而且计划要把Heather杀戮,Colton只好想尽法子介入,想阻止悲剧发生。Colton挖掘出真相以后才发觉工作比他想像中的还要吓人。
  1. Video
  2. ID                                       : 1
  3. Format                                   : AVC
  4. Format/Info                              : Advanced Video Codec
  5. Format profile                           : [email protected]
  6. Format settings                          : CABAC / 5 Ref Frames
  7. Format settings, CABAC                   : Yes
  8. Format settings, Reference frames        : 5 frames
  9. Codec ID                                 : V_MPEG4/ISO/AVC
  10. Duration                                 : 1 h 31 min
  11. Bit rate                                 : 6 960 kb/s
  12. Width                                    : 1 920 pixels
  13. Height                                   : 816 pixels
  14. Display aspect ratio                     : 2.35:1
  15. Frame rate mode                          : Constant
  16. Frame rate                               : 23.976 (24000/1001/189150) FPS
  17. Color space                              : YUV
  18. Chroma subsampling                       : 4:2:0
  19. Bit depth                                : 8 bits
  20. Scan type                                : Progressive
  21. Bits/(Pixel*Frame)                       : 0.185
  22. Stream size                              : 4.43 GiB (78%)
  23. Writing library                          : x264 core 164 r3075 66a5bc1
  24. Encoding settings                        : cabac=1 / ref=5 / deblock=1:-3:-3 / analyse=0x3:0x133 / me=umh / subme=9 / psy=1 / psy_rd=1.00:0.00 / mixed_ref=1 / me_range=16 / chroma_me=1 / trellis=2 / 8x8dct=1 / cqm=0 / deadzone=21,11 / fast_pskip=0 / chroma_qp_offset=-2 / threads=24 / lookahead_threads=2 / sliced_threads=0 / nr=0 / decimate=1 / interlaced=0 / bluray_compat=0 / constrained_intra=0 / bframes=3 / b_pyramid=2 / b_adapt=2 / b_bias=0 / direct=3 / weightb=1 / open_gop=0 / weightp=2 / keyint=250 / keyint_min=23 / scenecut=40 / intra_refresh=0 / rc_lookahead=60 / rc=crf / mbtree=1 / crf=17.0 / qcomp=0.60 / qpmin=0 / qpmax=69 / qpstep=4 / ip_ratio=1.40 / aq=3:1.00
  25. Default                                  : Yes
  26. Forced                                   : No
  27. Color range                              : Limited
  28. Matrix coefficients                      : BT.709

  29. Audio
  30. ID                                       : 2
  31. Format                                   : DTS XLL
  32. Format/Info                              : Digital Theater Systems
  33. Commercial name                          : DTS-HD Master Audio
  34. Codec ID                                 : A_DTS
  35. Duration                                 : 1 h 31 min
  36. Bit rate mode                            : Variable
  37. Bit rate                                 : 1 946 kb/s
  38. Channel(s)                               : 6 channels
  39. Channel layout                           : C L R Ls Rs LFE
  40. Sampling rate                            : 48.0 kHz
  41. Frame rate                               : 93.750 FPS (512 SPF)
  42. Bit depth                                : 16 bits
  43. Compression mode                         : Lossless
  44. Stream size                              : 1.24 GiB (22%)
  45. Language                                 : English
  46. Default                                  : Yes
  47. Forced                                   : No

  48. Text #1
  49. ID                                       : 3
  50. Format                                   : UTF-8
  51. Codec ID                                 : S_TEXT/UTF8
  52. Codec ID/Info                            : UTF-8 Plain Text
  53. Duration                                 : 1 min 42 s
  54. Bit rate                                 : 3 b/s
  55. Count of elements                        : 3
  56. Stream size                              : 45.0 Bytes (0%)
  57. Language                                 : English
  58. Default                                  : Yes
  59. Forced                                   : Yes

  60. Text #2
  61. ID                                       : 4
  62. Format                                   : PGS
  63. Muxing mode                              : zlib
  64. Codec ID                                 : S_HDMV/PGS
  65. Codec ID/Info                            : Picture based subtitle format used on BDs/HD-DVDs
  66. Duration                                 : 1 min 42 s
  67. Bit rate                                 : 1 928 b/s
  68. Count of elements                        : 6
  69. Stream size                              : 24.1 KiB (0%)
  70. Language                                 : English
  71. Default                                  : No
  72. Forced                                   : No

  73. Text #3
  74. ID                                       : 5
  75. Format                                   : PGS
  76. Muxing mode                              : zlib
  77. Codec ID                                 : S_HDMV/PGS
  78. Codec ID/Info                            : Picture based subtitle format used on BDs/HD-DVDs
  79. Duration                                 : 1 h 15 min
  80. Bit rate                                 : 861 b/s
  81. Count of elements                        : 62
  82. Stream size                              : 475 KiB (0%)
  83. Language                                 : German
  84. Default                                  : No
  85. Forced                                   : No

  86. Menu
  87. 00:00:00.000                             : en:00:00:00.000
  88. 00:09:40.872                             : en:00:09:40.872
  89. 00:21:25.910                             : en:00:21:25.910
  90. 00:32:03.088                             : en:00:32:03.088
  91. 00:42:35.595                             : en:00:42:35.595
  92. 00:53:26.829                             : en:00:53:26.829
  93. 00:59:33.236                             : en:00:59:33.236
  94. 01:11:48.346                             : en:01:11:48.346
复制代码





                                       
                                       

                                       
                                       
                                       




回复

使用道具 举报

蓝光币
2
发表于 2021-10-23 22:34:01 | 显示全部楼层
楼主发贴辛苦了,谢谢楼主分享!我觉得蓝光电影网是注册对了!
回复 支持 反对

使用道具 举报

蓝光币
173
发表于 2021-10-24 05:13:39 | 显示全部楼层

这东西我收了!谢谢楼主!蓝光电影网真好!
回复 支持 反对

使用道具 举报

懒得打字嘛,点击右侧快捷回复 【右侧内容,后台自定义】
您需要登录后才可以回帖 登录 | 立即加入

本版积分规则

Archiver|小黑屋| 蓝光电影网 |网站地图

Copyright © 2021 Comsenz Inc. Powered by 蓝光电影网

蓝光电影网

本站内容由用户自主分享和转载自互联网,转载目的在于传递更多信息,并不代表本网赞同其观点和对其真实性负责。

如有侵权、违反国家法律政策行为,请联系我们,我们会第一时间及时清除和处理!

举报反馈邮箱:[email protected]

快速回复 返回顶部 返回列表