找回密码

蓝光电影网

查看: 398|回复: 0

[动作] 沙丘/星际奇兵 Dune.1984.BONUS.DISC.1080p.BluRay.REMUX.AVC.LPCM2.0-FGT 17.80GB

[复制链接]
蓝光币
682
发表于 2021-10-23 20:16:59 | 显示全部楼层 |阅读模式


◎译  名 沙丘/星际奇兵(港)/沙丘魔堡(台)
◎片  名 Dune
◎年  代 1984
◎产  地 美国
◎类  别 行动 / 科幻 / 冒险
◎语  言 英语,意大利语
◎上映日期 1984-12-01(美国)
◎豆瓣评分 6.0/10 from 5040 users
◎豆瓣链接 https://movie.douban.com/subject/1293092/
◎片  长 137 分钟
◎导  演 大卫·林奇 David Lynch
◎编  剧 大卫·林奇 David Lynch / 弗兰克·赫伯特 Frank Herbert
◎主  演 肖恩·杨 Sean Young
       帕特里克·斯图尔特 Patrick Stewart
       斯汀 Sting
       凯尔·麦克拉克伦 Kyle MacLachlan
       理查德·乔丹 Richard Jordan
       西尔瓦娜·曼加诺 Silvana Mangano
       埃沃雷特·麦克吉尔 Everett McGill
       肯尼思·麦克米伦 Kenneth McMillan
       简·菲利普斯 Sian Phillips
       尤尔根·普洛斯诺 Jürgen Prochnow
       保罗·L·史姑娘 Paul L. Smith
       迪恩·斯托克维尔 Dean Stockwell
       琳达·亨特 Linda Hunt
       何塞·费勒 José Ferrer
       维吉妮娅·马德森 Virginia Madsen
       艾丽西亚·维特 Alicia Witt
       大卫·林奇 David Lynch
       马克斯·冯·叙多夫 Max von Sydow
       杰克·南斯 Jack Nance
       弗雷迪·琼斯 Freddie Jones
       安杰莉卡·阿拉贡 Angélica Aragón
◎标  签 科幻 | 大卫·林奇 | 美国 | 沙丘 | DavidLynch | 1984 | 美国电影 | 1980s
◎简  介


  故事发生在悠远的未来时代,沙丹四世(何塞·费勒 José Ferrer 饰)是宇宙之王,他靠着自己的强权和武力控制着全部帝国。虽然手握大权,但沙丹四世还是没有平安感,他以为自己的表弟亚崔迪公爵(尤尔根·普洛斯诺 Jürgen Prochnow 饰)诡计谋权篡位,是以将他发配到了悠远的凯勒丹行星上。
  
  沙丹四世对于亚崔迪公爵的迫害并没有停止,最初,公爵败北自杀,留下妻子和儿子保罗(凯尔·麦克拉克伦 Kyle MacLachlan 饰)流浪失所,两人逃到了广袤的沙漠当中,向当地的土著乞助。土著们将保罗当做了他们的救世主顶礼跪拜,保罗终极成为了土著魁首,并和名为佳妮(肖恩·杨 Sean Young 饰)确当地女子结为夫妻,但是,复仇的火焰从未在他的心中熄灭过。
◎获奖情况
  第57届奥斯卡金像奖 ?(1985)
  最好声响(提名) 凯文·奥康奈尔?/?比尔·瓦尼?/?史蒂夫·马斯洛?/?尼尔森·斯托尔
  1. Video
  2. ID                                       : 1
  3. ID in the original source medium         : 4113 (0x1011)
  4. Format                                   : AVC
  5. Format/Info                              : Advanced Video Codec
  6. Format profile                           : [email protected]
  7. Format settings                          : CABAC / 3 Ref Frames
  8. Format settings, CABAC                   : Yes
  9. Format settings, Reference frames        : 3 frames
  10. Codec ID                                 : V_MPEG4/ISO/AVC
  11. Duration                                 : 1 h 22 min
  12. Bit rate mode                            : Variable
  13. Bit rate                                 : 29.4 Mb/s
  14. Maximum bit rate                         : 30.0 Mb/s
  15. Width                                    : 1 920 pixels
  16. Height                                   : 1 080 pixels
  17. Display aspect ratio                     : 16:9
  18. Frame rate mode                          : Constant
  19. Frame rate                               : 23.976 (24000/1001/189150) FPS
  20. Standard                                 : NTSC
  21. Color space                              : YUV
  22. Chroma subsampling                       : 4:2:0
  23. Bit depth                                : 8 bits
  24. Scan type                                : Progressive
  25. Bits/(Pixel*Frame)                       : 0.592
  26. Stream size                              : 16.9 GiB (95%)
  27. Writing library                          : x264pro - Adobe CS Exporter Plug-in
  28. Encoding settings                        : cabac=1 / ref=4 / deblock=1:-2:-2 / analyse=0x3:0x113 / me=umh / subme=9 / psy=1 / psy_rd=1.00:0.25 / mixed_ref=1 / me_range=16 / chroma_me=1 / trellis=1 / 8x8dct=1 / cqm=0 / deadzone=6,6 / fast_pskip=1 / chroma_qp_offset=-4 / threads=16 / lookahead_threads=2 / sliced_threads=0 / slices=4 / nr=0 / decimate=0 / interlaced=0 / bluray_compat=1 / constrained_intra=0 / bframes=3 / b_pyramid=1 / b_adapt=2 / b_bias=0 / direct=3 / weightb=1 / open_gop=0 / weightp=1 / keyint=24 / keyint_min=1 / scenecut=40 / intra_refresh=0 / rc_lookahead=24 / rc=crf / mbtree=1 / crf=1.0 / qcomp=0.80 / qpmin=0 / qpmax=69 / qpstep=4 / vbv_maxrate=30000 / vbv_bufsize=30000 / crf_max=0.0 / nal_hrd=vbr / ip_ratio=1.10 / aq=1:0.50
  29. Language                                 : English
  30. Default                                  : No
  31. Forced                                   : No
  32. Color range                              : Limited
  33. Color primaries                          : BT.709
  34. Transfer characteristics                 : BT.709
  35. Matrix coefficients                      : BT.709
  36. Original source medium                   : Blu-ray
  37. Audio
  38. ID                                       : 2
  39. ID in the original source medium         : 4352 (0x1100)
  40. Format                                   : PCM
  41. Format settings                          : Little / Signed
  42. Codec ID                                 : A_PCM/INT/LIT
  43. Duration                                 : 1 h 22 min
  44. Bit rate mode                            : Constant
  45. Bit rate                                 : 1 536 kb/s
  46. Channel(s)                               : 2 channels
  47. Sampling rate                            : 48.0 kHz
  48. Frame rate                               : 30.000 FPS (1600 SPF)
  49. Bit depth                                : 16 bits
  50. Stream size                              : 903 MiB (5%)
  51. Title                                    : Stereo
  52. Language                                 : English
  53. Default                                  : Yes
  54. Forced                                   : No
  55. Original source medium                   : Blu-ray
  56. Text
  57. ID                                       : 3
  58. ID in the original source medium         : 4608 (0x1200)
  59. Format                                   : PGS
  60. Codec ID                                 : S_HDMV/PGS
  61. Codec ID/Info                            : Picture based subtitle format used on BDs/HD-DVDs
  62. Duration                                 : 1 h 20 min
  63. Bit rate                                 : 59.5 kb/s
  64. Count of elements                        : 2264
  65. Stream size                              : 34.3 MiB (0%)
  66. Language                                 : German
  67. Default                                  : No
  68. Forced                                   : No
  69. Original source medium                   : Blu-ray
  70. Menu
  71. 00:00:00.000                             : en:Chapter 01
  72. 00:01:30.340                             : en:Chapter 02
  73. 00:11:20.096                             : en:Chapter 03
  74. 00:24:37.976                             : en:Chapter 04
  75. 00:44:03.223                             : en:Chapter 05
  76. 01:00:22.035                             : en:Chapter 06
  77. 01:15:00.078                             : en:Chapter 07
复制代码







                                       
                                       

                                       
                                       
                                       




回复

使用道具 举报

懒得打字嘛,点击右侧快捷回复 【右侧内容,后台自定义】
您需要登录后才可以回帖 登录 | 立即加入

本版积分规则

Archiver|小黑屋| 蓝光电影网 |网站地图

Copyright © 2021 Comsenz Inc. Powered by 蓝光电影网

蓝光电影网

本站内容由用户自主分享和转载自互联网,转载目的在于传递更多信息,并不代表本网赞同其观点和对其真实性负责。

如有侵权、违反国家法律政策行为,请联系我们,我们会第一时间及时清除和处理!

举报反馈邮箱:[email protected]

快速回复 返回顶部 返回列表