找回密码

蓝光电影网

查看: 198|回复: 0

[奇幻] 龙的世界/魔幻神龙 Dragonworld.1994.1080p.AMZN.WEBRip.DDP2.0.x264-squalor 7.65GB

[复制链接]
蓝光币
733
发表于 2021-10-25 09:13:15 | 显示全部楼层 |阅读模式


◎译  名 龙的天下/魔幻神龙
◎片  名 Dragonworld
◎年  代 1994
◎产  地 美国
◎类  别 奇异 / 冒险
◎语  言 英语
◎上映日期 1994-07-27(美国)
◎豆瓣评分 7.9/10 from 1373 users
◎豆瓣链接 https://movie.douban.com/subject/1304590/
◎片  长 86分钟
◎导  演 特德 尼古劳 Ted Nicolaou
◎编  剧 查尔斯·班德 Charles Band / 特德 尼古劳 Ted Nicolaou
◎主  演 Courtland Mead Courtland Mead
       珍妮特·亨弗瑞 Janet Henfrey
       Stuart Campbell Stuart Campbell
       安德鲁·克尔 Andrew Keir
       莉拉·凯 Lila Kaye
       阿拉斯塔尔·麦肯泽 Alastair Mackenzie
       布里特妮·波威尔 Brittney Powell
       约翰·伍德温 John Woodvine
       瓦伦丁·波佩斯库 Valentin Popescu
◎标  签 伪记载片 | 龙 | 记载片 | 科幻 | 龙的天下 | 美国 | 空想 | 科幻奇异冒险
◎简  介


  此片为1994年奇异/冒险电影,与2004年伪记载片《龙的天下:空想已成现实》https://movie.douban.com/subject/1441313/ 有别,标志时请留意区分。
  1. Video
  2. ID                                       : 1
  3. Format                                   : AVC
  4. Format/Info                              : Advanced Video Codec
  5. Format profile                           : [email protected]
  6. Format settings                          : CABAC / 4 Ref Frames
  7. Format settings, CABAC                   : Yes
  8. Format settings, Reference frames        : 4 frames
  9. Codec ID                                 : V_MPEG4/ISO/AVC
  10. Duration                                 : 1 h 25 min
  11. Bit rate                                 : 12.5 Mb/s
  12. Width                                    : 1 920 pixels
  13. Height                                   : 1 080 pixels
  14. Display aspect ratio                     : 16:9
  15. Frame rate mode                          : Constant
  16. Frame rate                               : 23.976 (24000/1001/189150) FPS
  17. Color space                              : YUV
  18. Chroma subsampling                       : 4:2:0
  19. Bit depth                                : 8 bits
  20. Scan type                                : Progressive
  21. Bits/(Pixel*Frame)                       : 0.252
  22. Stream size                              : 7.51 GiB (98%)
  23. Title                                    : AVC
  24. Language                                 : English
  25. Default                                  : Yes
  26. Forced                                   : No
  27. Color range                              : Limited
  28. Color primaries                          : BT.709
  29. Transfer characteristics                 : BT.709
  30. Matrix coefficients                      : BT.709
  31. Audio
  32. ID                                       : 2
  33. Format                                   : E-AC-3
  34. Format/Info                              : Enhanced AC-3
  35. Commercial name                          : Dolby Digital Plus
  36. Codec ID                                 : A_EAC3
  37. Duration                                 : 1 h 25 min
  38. Bit rate mode                            : Constant
  39. Bit rate                                 : 224 kb/s
  40. Channel(s)                               : 2 channels
  41. Channel layout                           : L R
  42. Sampling rate                            : 48.0 kHz
  43. Frame rate                               : 31.250 FPS (1536 SPF)
  44. Compression mode                         : Lossy
  45. Stream size                              : 137 MiB (2%)
  46. Title                                    : DDP 2.0 224k
  47. Language                                 : English
  48. Service kind                             : Complete Main
  49. Default                                  : Yes
  50. Forced                                   : No
复制代码







                                       
                                       

                                       
                                       
                                       




回复

使用道具 举报

懒得打字嘛,点击右侧快捷回复 【右侧内容,后台自定义】
您需要登录后才可以回帖 登录 | 立即加入

本版积分规则

Archiver|小黑屋| 蓝光电影网 |网站地图

Copyright © 2021 Comsenz Inc. Powered by 蓝光电影网

蓝光电影网

本站内容由用户自主分享和转载自互联网,转载目的在于传递更多信息,并不代表本网赞同其观点和对其真实性负责。

如有侵权、违反国家法律政策行为,请联系我们,我们会第一时间及时清除和处理!

举报反馈邮箱:[email protected]

快速回复 返回顶部 返回列表