找回密码

蓝光电影网

查看: 489|回复: 3

[动作] WWE:夏日狂潮 2021 WWE.Summerslam.2021.720p.BluRay.x264-FREEMAN 8.74GB

[复制链接]
蓝光币
682
发表于 2021-10-25 19:13:40 | 显示全部楼层 |阅读模式


◎译  名 WWE:夏日怒潮 2021
◎片  名 WWE: SummerSlam 2021
◎年  代 2021
◎产  地 美国
◎类  别 行动 / 活动 / 真人秀
◎语  言 英语
◎上映日期 2021-08-21(美国)
◎豆瓣评分 /10 from 0 users
◎豆瓣链接 https://movie.douban.com/subject/35575650/
◎导  演 凯文·杜恩 Kevin Dunn
◎编  剧 文斯·麦马汉 Vince McMahon
◎主  演 约翰·塞纳 John Cena
       罗曼·雷恩斯 Roman Reigns
       鲍比·莱斯利 Bobby Lashley
       比尔·戈德博格 Bill Goldberg
       布洛克·莱斯纳 Brock Lesnar
       塞斯·罗林斯 Seth Rollins
       艾吉 Adam Copeland
       艾希莉·弗莱尔 Ashley Fliehr
       萨莎·班克斯 Sasha Banks
       比安卡·布莱尔 Bianca Blair
       瑞贝卡·奎恩 Rebecca Quin
       德鲁·盖洛韦 Drew Galloway
       希莫斯 Stephen Farrelly
◎标  签 美国 | 暴力 | 笑剧 | 行动 | 体育 | WWE | 2021
◎简  介


  由《WWE 2K22》和Credit One Bank结合为您显现的第34届SummerSlam将于东部时候2021年8月21日晚8点(北京时候8月22日早8点,垫场秀7点)于内华达州天堂市的忠厚航空活动场(Allegiant Stadium)举行!!这将是WWE历史上初次在当地时候周六举行PPV现场直播。
  1. Video
  2. ID                                       : 1
  3. Format                                   : AVC
  4. Format/Info                              : Advanced Video Codec
  5. Format profile                           : [email protected]
  6. Format settings                          : CABAC / 8 Ref Frames
  7. Format settings, CABAC                   : Yes
  8. Format settings, Reference frames        : 8 frames
  9. Codec ID                                 : V_MPEG4/ISO/AVC
  10. Duration                                 : 4 h 0 min
  11. Bit rate                                 : 5 000 kb/s
  12. Width                                    : 1 280 pixels
  13. Height                                   : 720 pixels
  14. Display aspect ratio                     : 16:9
  15. Frame rate mode                          : Constant
  16. Frame rate                               : 29.970 (30000/1001/189150) FPS
  17. Color space                              : YUV
  18. Chroma subsampling                       : 4:2:0
  19. Bit depth                                : 8 bits
  20. Scan type                                : Progressive
  21. Bits/(Pixel*Frame)                       : 0.181
  22. Stream size                              : 8.41 GiB (96%)
  23. Writing library                          : x264 core 164 r3075 66a5bc1
  24. Encoding settings                        : cabac=1 / ref=8 / deblock=1:-3:-3 / analyse=0x3:0x133 / me=umh / subme=9 / psy=1 / psy_rd=1.00:0.00 / mixed_ref=1 / me_range=16 / chroma_me=1 / trellis=2 / 8x8dct=1 / cqm=0 / deadzone=21,11 / fast_pskip=0 / chroma_qp_offset=-2 / threads=22 / lookahead_threads=1 / sliced_threads=0 / nr=0 / decimate=1 / interlaced=0 / bluray_compat=0 / constrained_intra=0 / bframes=3 / b_pyramid=2 / b_adapt=2 / b_bias=0 / direct=3 / weightb=1 / open_gop=0 / weightp=2 / keyint=250 / keyint_min=30 / scenecut=40 / intra_refresh=0 / rc_lookahead=60 / rc=2pass / mbtree=1 / bitrate=5000 / ratetol=1.0 / qcomp=0.60 / qpmin=0 / qpmax=69 / qpstep=4 / cplxblur=20.0 / qblur=0.5 / ip_ratio=1.40 / aq=3:1.00
  25. Default                                  : Yes
  26. Forced                                   : No
  27. Color range                              : Limited
  28. Matrix coefficients                      : BT.709

  29. Audio
  30. ID                                       : 2
  31. Format                                   : AC-3
  32. Format/Info                              : Audio Coding 3
  33. Commercial name                          : Dolby Digital
  34. Codec ID                                 : A_AC3
  35. Duration                                 : 4 h 0 min
  36. Bit rate mode                            : Constant
  37. Bit rate                                 : 192 kb/s
  38. Channel(s)                               : 2 channels
  39. Channel layout                           : L R
  40. Sampling rate                            : 48.0 kHz
  41. Frame rate                               : 31.250 FPS (1536 SPF)
  42. Compression mode                         : Lossy
  43. Stream size                              : 331 MiB (4%)
  44. Language                                 : English
  45. Service kind                             : Complete Main
  46. Default                                  : Yes
  47. Forced                                   : No

  48. Menu
  49. 00:00:00.000                             : en:00:00:00.000
  50. 00:00:30.130                             : en:00:00:30.130
  51. 00:04:10.484                             : en:00:04:10.484
  52. 00:20:57.756                             : en:00:20:57.756
  53. 00:30:42.908                             : en:00:30:42.908
  54. 00:32:26.011                             : en:00:32:26.011
  55. 00:53:49.927                             : en:00:53:49.927
  56. 01:10:48.878                             : en:01:10:48.878
  57. 01:11:44.267                             : en:01:11:44.267
  58. 01:18:02.044                             : en:01:18:02.044
  59. 01:33:56.898                             : en:01:33:56.898
  60. 01:37:44.258                             : en:01:37:44.258
  61. 01:50:51.812                             : en:01:50:51.812
  62. 02:18:15.187                             : en:02:18:15.187
  63. 02:51:01.251                             : en:02:51:01.251
  64. 02:59:54.250                             : en:02:59:54.250
  65. 03:24:18.246                             : en:03:24:18.246
复制代码





                                       
                                       

                                       
                                       
                                       




回复

使用道具 举报

蓝光币
30
发表于 2021-10-26 21:01:24 | 显示全部楼层

这东西我收了!谢谢楼主!蓝光电影网真好!
回复 支持 反对

使用道具 举报

蓝光币
0
发表于 2021-10-26 21:25:58 | 显示全部楼层


这东西我收了!谢谢楼主!蓝光电影网真好!
回复 支持 反对

使用道具 举报

蓝光币
30
发表于 2021-10-27 14:04:23 | 显示全部楼层
楼主发贴辛苦了,谢谢楼主分享!我觉得蓝光电影网是注册对了!
回复 支持 反对

使用道具 举报

懒得打字嘛,点击右侧快捷回复 【右侧内容,后台自定义】
您需要登录后才可以回帖 登录 | 立即加入

本版积分规则

Archiver|小黑屋| 蓝光电影网 |网站地图

Copyright © 2021 Comsenz Inc. Powered by 蓝光电影网

蓝光电影网

本站内容由用户自主分享和转载自互联网,转载目的在于传递更多信息,并不代表本网赞同其观点和对其真实性负责。

如有侵权、违反国家法律政策行为,请联系我们,我们会第一时间及时清除和处理!

举报反馈邮箱:[email protected]

快速回复 返回顶部 返回列表