找回密码

蓝光电影网

查看: 382|回复: 2

[REMUX.HEVC] 黑夜传说/决战异世界 Underworld.2003.UNRATED.2160p.BluRay.REMUX.HEVC.DTS-HD.MA.TrueHD.7.1.Atmos-FGT 53.33GB

[复制链接]
蓝光币
733
发表于 2021-10-26 10:47:26 | 显示全部楼层 |阅读模式


◎译  名 黑夜传闻/决战异天下(台)/妖夜寻狼(港)
◎片  名 Underworld
◎年  代 2003
◎产  地 英国,德国,匈牙利,美国
◎类  别 行动 / 惊悚 / 奇异
◎语  言 英语
◎上映日期 2003-09-08(多伦多电影节) / 2003-09-19(美国)
◎豆瓣评分 7.5/10 from 88493 users
◎豆瓣链接 https://movie.douban.com/subject/1307527/
◎片  长 121分钟
◎导  演 伦·怀斯曼 Len Wiseman
◎编  剧 凯文·格雷维奥斯 Kevin Grevioux / 伦·怀斯曼 Len Wiseman / Danny McBride Danny McBride
◎主  演 凯特·贝金赛尔 Kate Beckinsale
       斯科特·斯比德曼 Scott Speedman
       麦克·辛 Michael Sheen
       山恩·布罗利 Shane Brolly
       比尔·奈伊 Bill Nighy
       艾尔文·莱德 Erwin Leder
       索菲娅·迈尔斯 Sophia Myles
       罗比·基 Robbie Gee
       温特沃斯·米勒 Wentworth Miller
       凯文·格雷维奥斯 Kevin Grevioux
       兹塔·格罗格 Zita G?r?g
       汉克·阿莫斯 Hank Amos
       理查德·赛特伦 Richard Cetrone
       Mike Mukatis Mike Mukatis
       Sándor Boros Sándor Boros
       安德烈·巴顿 Andreas Patton
       Danny McBride Danny McBride
       Jázmin Dammak Jázmin Dammak
       Ildikó Kovács Ildikó Kovács
       Ekkehardt Belle Ekkehardt Belle
       Reinhard Brock Reinhard Brock
       Pascal Breuer Pascal Breuer
       布莱恩·斯蒂尔 Brian Steele
       Kurt Carley Kurt Carley
       Zoltan Papp Zoltan Papp
◎标  签 吸血鬼 | 魔幻 | 美国 | 行动 | 科幻 | 奇异 | 美国电影 | 惊悚
◎简  介


  地球上一向存在着一个黑暗的地来天下。那边,两大种族――吸血鬼和狼人――在斗得不共戴天,每一方都以消灭对方种族为终极方针。
  
  一次,吸血鬼族的“月神”西丽妮(凯特?贝金赛尔 Kate Beckinsale 饰)在追杀几个落败的狼人时发现,狼人正在谋害绑架人类的一位医生麦克尔 (斯科特?斯比德曼 Scott Speedman 饰)。心知狼人必有所图,西丽妮单独前往狼窝查探。不意中了狼人的匿伏,身负重伤之际幸得麦克尔相救。在麦克尔送西丽妮回吸血鬼营地的途中,他意外被一只狼人咬伤了,由此揭开了麦克尔的身世之谜和狼人的诡计……
  1. Video
  2. ID                                       : 1
  3. ID in the original source medium         : 4113 (0x1011)
  4. Format                                   : HEVC
  5. Format/Info                              : High Efficiency Video Coding
  6. Format profile                           : Main [email protected]@High
  7. HDR format                               : SMPTE ST 2086, HDR10 compatible
  8. Codec ID                                 : V_MPEGH/ISO/HEVC
  9. Duration                                 : 2 h 13 min
  10. Bit rate                                 : 46.4 Mb/s
  11. Width                                    : 3 840 pixels
  12. Height                                   : 2 160 pixels
  13. Display aspect ratio                     : 16:9
  14. Frame rate mode                          : Constant
  15. Frame rate                               : 23.976 (24000/1001/189150) FPS
  16. Color space                              : YUV
  17. Chroma subsampling                       : 4:2:0 (Type 2)
  18. Bit depth                                : 10 bits
  19. Bits/(Pixel*Frame)                       : 0.233
  20. Stream size                              : 43.3 GiB (81%)
  21. Language                                 : English
  22. Default                                  : No
  23. Forced                                   : No
  24. Color range                              : Limited
  25. Color primaries                          : BT.2020
  26. Transfer characteristics                 : PQ
  27. Matrix coefficients                      : BT.2020 non-constant
  28. Mastering display color primaries        : Display P3
  29. Mastering display luminance              : min: 0.0050 cd/m2, max: 4000 cd/m2
  30. Maximum Content Light Level              : 811 cd/m2
  31. Maximum Frame-Average Light Level        : 505 cd/m2
  32. Original source medium                   : Blu-ray

  33. Audio #1
  34. ID                                       : 2
  35. ID in the original source medium         : 4356 (0x1104)
  36. Format                                   : MLP FBA 16-ch
  37. Format/Info                              : Meridian Lossless Packing FBA with 16-channel presentation
  38. Commercial name                          : Dolby TrueHD with Dolby Atmos
  39. Codec ID                                 : A_TRUEHD
  40. Duration                                 : 2 h 13 min
  41. Bit rate mode                            : Variable
  42. Bit rate                                 : 4 932 kb/s
  43. Maximum bit rate                         : 8 271 kb/s
  44. Channel(s)                               : 8 channels
  45. Channel layout                           : L R C LFE Ls Rs Lb Rb
  46. Sampling rate                            : 48.0 kHz
  47. Frame rate                               : 1 200.000 FPS (40 SPF)
  48. Bit depth                                : 24 bits
  49. Compression mode                         : Lossless
  50. Stream size                              : 4.60 GiB (9%)
  51. Title                                    : TrueHD 7.1 Atmos
  52. Language                                 : English
  53. Default                                  : Yes
  54. Forced                                   : No
  55. Original source medium                   : Blu-ray
  56. Number of dynamic objects                : 11
  57. Bed channel count                        : 1 channel
  58. Bed channel configuration                : LFE

  59. Audio #2
  60. ID                                       : 3
  61. Format                                   : DTS XLL
  62. Format/Info                              : Digital Theater Systems
  63. Commercial name                          : DTS-HD Master Audio
  64. Codec ID                                 : A_DTS
  65. Duration                                 : 2 h 13 min
  66. Bit rate mode                            : Variable
  67. Bit rate                                 : 4 420 kb/s
  68. Channel(s)                               : 8 channels
  69. Channel layout                           : C L R LFE Lb Rb Lss Rss
  70. Sampling rate                            : 48.0 kHz
  71. Frame rate                               : 93.750 FPS (512 SPF)
  72. Bit depth                                : 24 bits
  73. Compression mode                         : Lossless
  74. Stream size                              : 4.13 GiB (8%)
  75. Title                                    : DTS-HD MA 7.1
  76. Language                                 : English
  77. Default                                  : No
  78. Forced                                   : No

  79. Audio #3
  80. ID                                       : 4
  81. ID in the original source medium         : 4356 (0x1104)
  82. Format                                   : AC-3
  83. Format/Info                              : Audio Coding 3
  84. Commercial name                          : Dolby Digital
  85. Codec ID                                 : A_AC3
  86. Duration                                 : 2 h 13 min
  87. Bit rate mode                            : Constant
  88. Bit rate                                 : 640 kb/s
  89. Channel(s)                               : 6 channels
  90. Channel layout                           : L R C LFE Ls Rs
  91. Sampling rate                            : 48.0 kHz
  92. Frame rate                               : 31.250 FPS (1536 SPF)
  93. Compression mode                         : Lossy
  94. Stream size                              : 612 MiB (1%)
  95. Title                                    : DD 5.1
  96. Language                                 : English
  97. Service kind                             : Complete Main
  98. Default                                  : No
  99. Forced                                   : No
  100. Original source medium                   : Blu-ray

  101. Audio #4
  102. ID                                       : 5
  103. ID in the original source medium         : 4358 (0x1106)
  104. Format                                   : AC-3
  105. Format/Info                              : Audio Coding 3
  106. Commercial name                          : Dolby Digital
  107. Codec ID                                 : A_AC3
  108. Duration                                 : 2 h 13 min
  109. Bit rate mode                            : Constant
  110. Bit rate                                 : 640 kb/s
  111. Channel(s)                               : 6 channels
  112. Channel layout                           : L R C LFE Ls Rs
  113. Sampling rate                            : 48.0 kHz
  114. Frame rate                               : 31.250 FPS (1536 SPF)
  115. Compression mode                         : Lossy
  116. Stream size                              : 612 MiB (1%)
  117. Title                                    : DD 5.1
  118. Language                                 : French
  119. Service kind                             : Complete Main
  120. Default                                  : No
  121. Forced                                   : No
  122. Original source medium                   : Blu-ray

  123. Text #1
  124. ID                                       : 6
  125. Format                                   : UTF-8
  126. Codec ID                                 : S_TEXT/UTF8
  127. Codec ID/Info                            : UTF-8 Plain Text
  128. Duration                                 : 2 h 12 min
  129. Bit rate                                 : 27 b/s
  130. Count of elements                        : 777
  131. Stream size                              : 26.6 KiB (0%)
  132. Title                                    : SRT
  133. Language                                 : English
  134. Default                                  : Yes
  135. Forced                                   : No

  136. Text #2
  137. ID                                       : 7
  138. ID in the original source medium         : 4768 (0x12A0)
  139. Format                                   : PGS
  140. Muxing mode                              : zlib
  141. Codec ID                                 : S_HDMV/PGS
  142. Codec ID/Info                            : Picture based subtitle format used on BDs/HD-DVDs
  143. Duration                                 : 2 h 12 min
  144. Bit rate                                 : 19.0 kb/s
  145. Count of elements                        : 2086
  146. Stream size                              : 18.1 MiB (0%)
  147. Title                                    : SDH
  148. Language                                 : English
  149. Default                                  : No
  150. Forced                                   : No
  151. Original source medium                   : Blu-ray

  152. Text #3
  153. ID                                       : 8
  154. ID in the original source medium         : 4769 (0x12A1)
  155. Format                                   : PGS
  156. Muxing mode                              : zlib
  157. Codec ID                                 : S_HDMV/PGS
  158. Codec ID/Info                            : Picture based subtitle format used on BDs/HD-DVDs
  159. Duration                                 : 2 h 4 min
  160. Bit rate                                 : 15.5 kb/s
  161. Count of elements                        : 1428
  162. Stream size                              : 13.8 MiB (0%)
  163. Language                                 : English
  164. Default                                  : No
  165. Forced                                   : No
  166. Original source medium                   : Blu-ray

  167. Text #4
  168. ID                                       : 9
  169. ID in the original source medium         : 4772 (0x12A4)
  170. Format                                   : PGS
  171. Muxing mode                              : zlib
  172. Codec ID                                 : S_HDMV/PGS
  173. Codec ID/Info                            : Picture based subtitle format used on BDs/HD-DVDs
  174. Duration                                 : 2 h 12 min
  175. Bit rate                                 : 13.5 kb/s
  176. Count of elements                        : 1410
  177. Stream size                              : 12.8 MiB (0%)
  178. Language                                 : French
  179. Default                                  : No
  180. Forced                                   : No
  181. Original source medium                   : Blu-ray

  182. Text #5
  183. ID                                       : 10
  184. ID in the original source medium         : 4773 (0x12A5)
  185. Format                                   : PGS
  186. Muxing mode                              : zlib
  187. Codec ID                                 : S_HDMV/PGS
  188. Codec ID/Info                            : Picture based subtitle format used on BDs/HD-DVDs
  189. Duration                                 : 2 h 12 min
  190. Bit rate                                 : 15.4 kb/s
  191. Count of elements                        : 1448
  192. Stream size                              : 14.6 MiB (0%)
  193. Language                                 : Italian
  194. Default                                  : No
  195. Forced                                   : No
  196. Original source medium                   : Blu-ray

  197. Menu
  198. 00:00:00.000                             : en:Chapter 01
  199. 00:09:22.311                             : en:Chapter 02
  200. 00:18:48.001                             : en:Chapter 03
  201. 00:24:29.551                             : en:Chapter 04
  202. 00:34:05.877                             : en:Chapter 05
  203. 00:40:30.136                             : en:Chapter 06
  204. 00:47:24.216                             : en:Chapter 07
  205. 00:58:32.634                             : en:Chapter 08
  206. 01:04:59.312                             : en:Chapter 09
  207. 01:12:03.485                             : en:Chapter 10
  208. 01:18:21.530                             : en:Chapter 11
  209. 01:24:56.257                             : en:Chapter 12
  210. 01:32:42.640                             : en:Chapter 13
  211. 01:42:44.449                             : en:Chapter 14
  212. 01:51:41.986                             : en:Chapter 15
  213. 02:03:44.291                             : en:Chapter 16
复制代码




                                       
                                       

                                       
                                       
                                       




回复

使用道具 举报

蓝光币
19
发表于 2021-10-26 11:27:43 | 显示全部楼层
谢谢分享
回复

使用道具 举报

蓝光币
1
发表于 2021-11-19 16:40:56 | 显示全部楼层
感谢分享

回复

使用道具 举报

懒得打字嘛,点击右侧快捷回复 【右侧内容,后台自定义】
您需要登录后才可以回帖 登录 | 立即加入

本版积分规则

Archiver|小黑屋| 蓝光电影网 |网站地图

Copyright © 2021 Comsenz Inc. Powered by 蓝光电影网

蓝光电影网

本站内容由用户自主分享和转载自互联网,转载目的在于传递更多信息,并不代表本网赞同其观点和对其真实性负责。

如有侵权、违反国家法律政策行为,请联系我们,我们会第一时间及时清除和处理!

举报反馈邮箱:[email protected]

快速回复 返回顶部 返回列表