找回密码

蓝光电影网

查看: 532|回复: 2

[8bit.SDR] 人之怒 Wrath.of.Man.2021.2160p.BluRay.x264.8bit.SDR.DTS-HD.MA.7.1-SWTYBLZ 32.40GB

[复制链接]
蓝光币
682
发表于 2021-10-26 16:49:12 | 显示全部楼层 |阅读模式


◎译  名 人之怒/Cash Truck/玩命钞劫(台)/运钞车
◎片  名 Wrath of Man
◎年  代 2021
◎产  地 美国,英国
◎类  别 行动 / 犯罪
◎语  言 英语
◎上映日期 2021-04-22(俄罗斯) / 2021-05-07(美国) / 2021-05-10(中国大陆)
◎豆瓣评分 6.7/10 from 126701 users
◎豆瓣链接 https://movie.douban.com/subject/27046740/
◎片  长 118分钟
◎导  演 盖·里奇 Guy Ritchie
◎编  剧 尼古拉斯·布赫里夫 Nicolas Boukhrief / 艾瑞克·贝斯纳 éric Besnard / 盖·里奇 Guy Ritchie / 马恩·戴维斯 Marn Davies / 伊凡·阿特金森 Ivan Atkinson
◎主  演 杰森·斯坦森 Jason Statham
       霍特·麦克卡兰尼 Holt McCallany
       罗奇·威廉姆斯 Rocci Williams
       乔什·哈奈特 Josh Hartnett
       杰弗里·多诺万 Jeffrey Donovan
       斯科特·伊斯特伍德 Scott Eastwood
       安迪·加西亚 Andy Garcia
       道比·欧帕瑞 Deobia Oparei
       拉兹·阿隆索 Laz Alonso
       劳尔·卡斯提洛 Raúl Castillo
       克里斯·雷利 Chris Reilly
       埃迪·马森 Eddie Marsan
       尼芙·阿尔格 Niamh Algar
       塔格·墨菲 Tadhg Murphy
       马克·阿诺德 Mark Arnold
       杰拉尔德·泰勒 Gerald Tyler
       亚历克斯·费恩斯 Alex Ferns
       乔什·柯德雷 Josh Cowdery
       杰森·王 Jason Wong
       罗伯·德兰尼 Rob Delaney
       伊莱·布朗 Eli Brown
       凯瑞·莎勒 Kerry Shale
       卡梅伦·杰克 Cameron Jack
       达雷尔·席尔瓦 Darrell D'Silva
       巴布斯·奥卢桑莫昆 Babs Olusanmokun
       多米尼克·托马斯 Dominique Thomas
       琳·勒内 Lyne Renee
       蕾贝卡·卡尔德 Rebecca Calder
       伊芙·麦凯林 Eve Macklin
       詹姆斯·沃伦 James Warren
       波兹·马龙 Post Malone
       史蒂威·戴维斯 Stevee Davies
       蒙塔娜·曼宁 Montana Manning
       安东尼·莫利纳利 Anthony Molinari
◎标  签 犯罪 | 行动 | 美国 | 2021 | 剧情 | 悬疑 | 英国 | 黑色诙谐
◎简  介


  在一次全部武装的运钞车劫案中,梅斯师长(杰森·斯坦森 饰)的儿子作为案发目击者被劫匪杀戮。拊膺切齿的梅斯为报丧子之仇,化身H卧底成为运钞车安保,试图找出杀戮他儿子的劫匪以及与劫匪黑暗勾结的安保公司内鬼。
  1. Video
  2. ID                                       : 1
  3. Format                                   : AVC
  4. Format/Info                              : Advanced Video Codec
  5. Format profile                           : [email protected]
  6. Format settings                          : CABAC / 5 Ref Frames
  7. Format settings, CABAC                   : Yes
  8. Format settings, Reference frames        : 5 frames
  9. Codec ID                                 : V_MPEG4/ISO/AVC
  10. Duration                                 : 1 h 58 min
  11. Bit rate                                 : 33.2 Mb/s
  12. Width                                    : 3 840 pixels
  13. Height                                   : 1 606 pixels
  14. Display aspect ratio                     : 2.40:1
  15. Frame rate mode                          : Constant
  16. Frame rate                               : 24.000 FPS
  17. Color space                              : YUV
  18. Chroma subsampling                       : 4:2:0
  19. Bit depth                                : 8 bits
  20. Scan type                                : Progressive
  21. Bits/(Pixel*Frame)                       : 0.225
  22. Stream size                              : 27.5 GiB (86%)
  23. Writing library                          : x264 core 157 r2935 545de2f
  24. Encoding settings                        : cabac=1 / ref=5 / deblock=1:-1:-1 / analyse=0x3:0x113 / me=umh / subme=10 / psy=1 / psy_rd=1.00:0.15 / mixed_ref=1 / me_range=48 / chroma_me=1 / trellis=2 / 8x8dct=1 / cqm=0 / deadzone=21,11 / fast_pskip=1 / chroma_qp_offset=-3 / threads=48 / lookahead_threads=4 / sliced_threads=0 / nr=0 / decimate=0 / interlaced=0 / bluray_compat=0 / constrained_intra=0 / bframes=3 / b_pyramid=2 / b_adapt=2 / b_bias=0 / direct=3 / weightb=1 / open_gop=0 / weightp=2 / keyint=250 / keyint_min=24 / scenecut=40 / intra_refresh=0 / rc_lookahead=50 / rc=crf / mbtree=1 / crf=18.0 / qcomp=0.60 / qpmin=0 / qpmax=69 / qpstep=4 / ip_ratio=1.40 / aq=1:1.00
  25. Default                                  : Yes
  26. Forced                                   : No

  27. Audio #1
  28. ID                                       : 2
  29. ID in the original source medium         : 4353 (0x1101)
  30. Format                                   : DTS XLL
  31. Format/Info                              : Digital Theater Systems
  32. Commercial name                          : DTS-HD Master Audio
  33. Codec ID                                 : A_DTS
  34. Duration                                 : 1 h 58 min
  35. Bit rate mode                            : Variable
  36. Bit rate                                 : 4 934 kb/s
  37. Channel(s)                               : 8 channels
  38. Channel layout                           : C L R LFE Lb Rb Lss Rss
  39. Sampling rate                            : 48.0 kHz
  40. Frame rate                               : 93.750 FPS (512 SPF)
  41. Bit depth                                : 24 bits
  42. Compression mode                         : Lossless
  43. Stream size                              : 4.08 GiB (13%)
  44. Title                                    : DTS-HD MA 7.1
  45. Language                                 : English
  46. Default                                  : Yes
  47. Forced                                   : No
  48. Original source medium                   : Blu-ray

  49. Audio #2
  50. ID                                       : 3
  51. Format                                   : AC-3
  52. Format/Info                              : Audio Coding 3
  53. Commercial name                          : Dolby Digital
  54. Codec ID                                 : A_AC3
  55. Duration                                 : 1 h 58 min
  56. Bit rate mode                            : Constant
  57. Bit rate                                 : 640 kb/s
  58. Channel(s)                               : 6 channels
  59. Channel layout                           : L R C LFE Ls Rs
  60. Sampling rate                            : 48.0 kHz
  61. Frame rate                               : 31.250 FPS (1536 SPF)
  62. Compression mode                         : Lossy
  63. Stream size                              : 542 MiB (2%)
  64. Title                                    : DD 5.1
  65. Language                                 : English
  66. Service kind                             : Complete Main
  67. Default                                  : No
  68. Forced                                   : No

  69. Text #1
  70. ID                                       : 4
  71. Format                                   : UTF-8
  72. Codec ID                                 : S_TEXT/UTF8
  73. Codec ID/Info                            : UTF-8 Plain Text
  74. Duration                                 : 1 h 50 min
  75. Bit rate                                 : 55 b/s
  76. Count of elements                        : 1402
  77. Stream size                              : 45.3 KiB (0%)
  78. Title                                    : SRT
  79. Language                                 : English
  80. Default                                  : Yes
  81. Forced                                   : No

  82. Text #2
  83. ID                                       : 5
  84. ID in the original source medium         : 4769 (0x12A1)
  85. Format                                   : PGS
  86. Muxing mode                              : zlib
  87. Codec ID                                 : S_HDMV/PGS
  88. Codec ID/Info                            : Picture based subtitle format used on BDs/HD-DVDs
  89. Duration                                 : 1 h 57 min
  90. Bit rate                                 : 22.7 kb/s
  91. Count of elements                        : 2982
  92. Stream size                              : 19.1 MiB (0%)
  93. Language                                 : French
  94. Default                                  : No
  95. Forced                                   : No
  96. Original source medium                   : Blu-ray

  97. Text #3
  98. ID                                       : 6
  99. ID in the original source medium         : 4770 (0x12A2)
  100. Format                                   : PGS
  101. Muxing mode                              : zlib
  102. Codec ID                                 : S_HDMV/PGS
  103. Codec ID/Info                            : Picture based subtitle format used on BDs/HD-DVDs
  104. Duration                                 : 1 h 58 min
  105. Bit rate                                 : 29.6 kb/s
  106. Count of elements                        : 4104
  107. Stream size                              : 25.0 MiB (0%)
  108. Title                                    : SDH
  109. Language                                 : French
  110. Default                                  : No
  111. Forced                                   : No
  112. Original source medium                   : Blu-ray

  113. Menu
  114. 00:00:00.000                             : en:Chapter 01
  115. 00:05:38.750                             : en:Chapter 02
  116. 00:12:51.083                             : en:Chapter 03
  117. 00:19:34.333                             : en:Chapter 04
  118. 00:25:38.541                             : en:Chapter 05
  119. 00:31:49.208                             : en:Chapter 06
  120. 00:38:14.916                             : en:Chapter 07
  121. 00:47:14.833                             : en:Chapter 08
  122. 01:02:21.208                             : en:Chapter 09
  123. 01:10:15.750                             : en:Chapter 10
  124. 01:17:16.291                             : en:Chapter 11
  125. 01:24:52.333                             : en:Chapter 12
  126. 01:31:42.083                             : en:Chapter 13
  127. 01:40:03.416                             : en:Chapter 14
  128. 01:46:51.333                             : en:Chapter 15
  129. 01:52:40.625                             : en:Chapter 16
复制代码












                                       
                                       

                                       
                                       
                                       




回复

使用道具 举报

蓝光币
119
发表于 2021-11-1 13:51:46 | 显示全部楼层

这东西我收了!谢谢楼主!蓝光电影网真好!
回复 支持 反对

使用道具 举报

蓝光币
61
发表于 2021-11-29 08:54:28 | 显示全部楼层

楼主太厉害了!楼主,电影应该很好看我觉得蓝光电影网真是个好地方!
回复 支持 反对

使用道具 举报

懒得打字嘛,点击右侧快捷回复 【右侧内容,后台自定义】
您需要登录后才可以回帖 登录 | 立即加入

本版积分规则

Archiver|小黑屋| 蓝光电影网 |网站地图

Copyright © 2021 Comsenz Inc. Powered by 蓝光电影网

蓝光电影网

本站内容由用户自主分享和转载自互联网,转载目的在于传递更多信息,并不代表本网赞同其观点和对其真实性负责。

如有侵权、违反国家法律政策行为,请联系我们,我们会第一时间及时清除和处理!

举报反馈邮箱:[email protected]

快速回复 返回顶部 返回列表