找回密码

蓝光电影网

查看: 408|回复: 1

[8bit.SDR] 黑夜传说4:觉醒 Underworld.Awakening.2012.2160p.BluRay.x264.8bit.SDR.DTS-HD.MA.TrueHD.7.1.Atmos-SWTYBLZ 17.46GB

[复制链接]
蓝光币
733
发表于 2021-10-27 09:23:21 | 显示全部楼层 |阅读模式


◎译  名 黑夜传闻4:醒觉/Underworld 4: New Dawn/决战异天下:未来苏醒3D(台)/妖夜寻狼:血姬醒觉(港)
◎片  名 Underworld: Awakening
◎年  代 2012
◎产  地 美国
◎类  别 行动 / 惊悚 / 奇异
◎语  言 英语
◎上映日期 2012-01-20(美国)
◎豆瓣评分 6.7/10 from 48467 users
◎豆瓣链接 https://movie.douban.com/subject/3990098/
◎片  长 88分钟
◎导  演 曼斯·马林德 M?ns M?rlind / 比约恩·史坦 Bj?rn Stein
◎编  剧 伦·怀斯曼 Len Wiseman / J·迈克尔·斯特拉辛斯基 J. Michael Straczynski
◎主  演 凯特·贝金赛尔 Kate Beckinsale
      英迪娅·埃斯利 India Eisley
      迈克尔·伊雷 Michael Ealy
      克里斯·霍尔登-里德 Kris Holden-Ried
      何家蓓 Sandrine Holt
      理查德·赛特伦 Richard Cetrone
      罗伯特·劳兰逊 Robert Lawrenson
      西奥·詹姆斯 Theo James
      查尔斯·丹斯 Charles Dance

◎标  签 吸血鬼 | 狼人 | 美国 | 行动 | 魔幻 | 科幻 | 2012 | 奇异

◎简  介

  终究有一天,人类向日渐增加的血族和狼族宣战,这两个族群遭到大举围歼与屠杀,人类获得绝对的上风。塞琳娜(凯特·贝金赛尔 Kate Beckinsale 饰)和约翰也在这场浩劫中遭难,当她再次醒来时,却发现自己被名为抗原研讨所的机构软禁起来,编号尝试品1号。她奋力冲破了约束,按照共视的才能在黑暗的都会中寻觅尝试品2号——约翰。途中她遭受血族的同伴互助以及狼人的攻击,当她找到被狼人们追逐的尝试品2号时却发现,眼前竟是一个从没见过面但有着极为可骇气力的小女孩——伊薇(英迪娅·埃斯利 India Eisley 饰),而她是血族与狼族的混血儿。
  
  在这个陌生的时代,塞琳娜必定继续过着血雨腥风的生活……
  1. Video
  2. ID : 1
  3. Format : AVC
  4. Format/Info : Advanced Video Codec
  5. Format profile : [email][email protected][/email]
  6. Format settings : CABAC / 5 Ref Frames
  7. Format settings, CABAC : Yes
  8. Format settings, Reference frames : 5 frames
  9. Codec ID : V_MPEG4/ISO/AVC
  10. Duration : 1 h 28 min
  11. Bit rate : 19.2 Mb/s
  12. Width : 3 840 pixels
  13. Height : 1 606 pixels
  14. Display aspect ratio : 2.40:1
  15. Frame rate mode : Constant
  16. Frame rate : 23.976 (24000/1001/189150) FPS
  17. Color space : YUV
  18. Chroma subsampling : 4:2:0
  19. Bit depth : 8 bits
  20. Scan type : Progressive
  21. Bits/(Pixel*Frame) : 0.130
  22. Stream size : 11.9 GiB (68%)
  23. Writing library : x264 core 157 r2935 545de2f
  24. Encoding settings : cabac=1 / ref=5 / deblock=1:-1:-1 / analyse=0x3:0x113 / me=umh / subme=10 / psy=1 / psy_rd=1.00:0.15 / mixed_ref=1 / me_range=48 / chroma_me=1 / trellis=2 / 8x8dct=1 / cqm=0 / deadzone=21,11 / fast_pskip=1 / chroma_qp_offset=-3 / threads=50 / lookahead_threads=4 / sliced_threads=0 / nr=0 / decimate=0 / interlaced=0 / bluray_compat=0 / constrained_intra=0 / bframes=3 / b_pyramid=2 / b_adapt=2 / b_bias=0 / direct=3 / weightb=1 / open_gop=0 / weightp=2 / keyint=250 / keyint_min=23 / scenecut=40 / intra_refresh=0 / rc_lookahead=50 / rc=crf / mbtree=1 / crf=18.0 / qcomp=0.60 / qpmin=0 / qpmax=69 / qpstep=4 / ip_ratio=1.40 / aq=1:1.00
  25. Default : Yes
  26. Forced : No

  27. Audio #1
  28. ID : 2
  29. ID in the original source medium : 4352 (0x1100)
  30. Format : MLP FBA 16-ch
  31. Format/Info : Meridian Lossless Packing FBA with 16-channel presentation
  32. Commercial name : Dolby TrueHD with Dolby Atmos
  33. Codec ID : A_TRUEHD
  34. Duration : 1 h 28 min
  35. Bit rate mode : Variable
  36. Bit rate : 5 020 kb/s
  37. Maximum bit rate : 8 295 kb/s
  38. Channel(s) : 8 channels
  39. Channel layout : L R C LFE Ls Rs Lb Rb
  40. Sampling rate : 48.0 kHz
  41. Frame rate : 1 200.000 FPS (40 SPF)
  42. Bit depth : 24 bits
  43. Compression mode : Lossless
  44. Stream size : 3.10 GiB (18%)
  45. Title : TrueHD 7.1 Atmos
  46. Language : English
  47. Default : Yes
  48. Forced : No
  49. Original source medium : Blu-ray
  50. Number of dynamic objects : 11
  51. Bed channel count : 1 channel
  52. Bed channel configuration : LFE

  53. Audio #2
  54. ID : 3
  55. ID in the original source medium : 4353 (0x1101)
  56. Format : DTS XLL
  57. Format/Info : Digital Theater Systems
  58. Commercial name : DTS-HD Master Audio
  59. Codec ID : A_DTS
  60. Duration : 1 h 28 min
  61. Bit rate mode : Variable
  62. Bit rate : 2 939 kb/s
  63. Channel(s) : 8 channels
  64. Channel layout : C L R LFE Lb Rb Lss Rss
  65. Sampling rate : 48.0 kHz
  66. Frame rate : 93.750 FPS (512 SPF)
  67. Bit depth : 16 bits
  68. Compression mode : Lossless
  69. Stream size : 1.82 GiB (10%)
  70. Title : DTS-HD MA 7.1
  71. Language : English
  72. Default : No
  73. Forced : No
  74. Original source medium : Blu-ray

  75. Audio #3
  76. ID : 4
  77. ID in the original source medium : 4352 (0x1100)
  78. Format : AC-3
  79. Format/Info : Audio Coding 3
  80. Commercial name : Dolby Digital
  81. Codec ID : A_AC3
  82. Duration : 1 h 28 min
  83. Bit rate mode : Constant
  84. Bit rate : 640 kb/s
  85. Channel(s) : 6 channels
  86. Channel layout : L R C LFE Ls Rs
  87. Sampling rate : 48.0 kHz
  88. Frame rate : 31.250 FPS (1536 SPF)
  89. Compression mode : Lossy
  90. Stream size : 405 MiB (2%)
  91. Title : DD 5.1
  92. Language : English
  93. Service kind : Complete Main
  94. Default : No
  95. Forced : No
  96. Original source medium : Blu-ray

  97. Text #1
  98. ID : 5
  99. Format : UTF-8
  100. Codec ID : S_TEXT/UTF8
  101. Codec ID/Info : UTF-8 Plain Text
  102. Duration : 1 h 17 min
  103. Bit rate : 34 b/s
  104. Count of elements : 691
  105. Stream size : 19.5 KiB (0%)
  106. Title : SRT
  107. Language : English
  108. Default : Yes
  109. Forced : No

  110. Text #2
  111. ID : 6
  112. ID in the original source medium : 4768 (0x12A0)
  113. Format : PGS
  114. Muxing mode : zlib
  115. Codec ID : S_HDMV/PGS
  116. Codec ID/Info : Picture based subtitle format used on BDs/HD-DVDs
  117. Duration : 1 h 21 min
  118. Bit rate : 24.5 kb/s
  119. Count of elements : 1704
  120. Stream size : 14.3 MiB (0%)
  121. Title : SDH
  122. Language : English
  123. Default : No
  124. Forced : No
  125. Original source medium : Blu-ray

  126. Text #3
  127. ID : 7
  128. ID in the original source medium : 4769 (0x12A1)
  129. Format : PGS
  130. Muxing mode : zlib
  131. Codec ID : S_HDMV/PGS
  132. Codec ID/Info : Picture based subtitle format used on BDs/HD-DVDs
  133. Duration : 1 h 17 min
  134. Bit rate : 20.5 kb/s
  135. Count of elements : 1445
  136. Stream size : 11.4 MiB (0%)
  137. Language : English
  138. Default : No
  139. Forced : No
  140. Original source medium : Blu-ray

  141. Text #4
  142. ID : 8
  143. ID in the original source medium : 4770 (0x12A2)
  144. Format : PGS
  145. Muxing mode : zlib
  146. Codec ID : S_HDMV/PGS
  147. Codec ID/Info : Picture based subtitle format used on BDs/HD-DVDs
  148. Duration : 1 h 21 min
  149. Bit rate : 24.5 kb/s
  150. Count of elements : 1704
  151. Stream size : 14.3 MiB (0%)
  152. Title : SDH
  153. Language : English
  154. Default : No
  155. Forced : No
  156. Original source medium : Blu-ray

  157. Text #5
  158. ID : 9
  159. ID in the original source medium : 4771 (0x12A3)
  160. Format : PGS
  161. Muxing mode : zlib
  162. Codec ID : S_HDMV/PGS
  163. Codec ID/Info : Picture based subtitle format used on BDs/HD-DVDs
  164. Duration : 1 h 17 min
  165. Bit rate : 20.5 kb/s
  166. Count of elements : 1454
  167. Stream size : 11.4 MiB (0%)
  168. Language : English
  169. Default : No
  170. Forced : No
  171. Original source medium : Blu-ray

  172. Text #6
  173. ID : 10
  174. ID in the original source medium : 4772 (0x12A4)
  175. Format : PGS
  176. Muxing mode : zlib
  177. Codec ID : S_HDMV/PGS
  178. Codec ID/Info : Picture based subtitle format used on BDs/HD-DVDs
  179. Duration : 1 h 17 min
  180. Bit rate : 10.6 kb/s
  181. Count of elements : 1475
  182. Stream size : 5.87 MiB (0%)
  183. Language : Arabic
  184. Default : No
  185. Forced : No
  186. Original source medium : Blu-ray

  187. Text #7
  188. ID : 11
  189. ID in the original source medium : 4773 (0x12A5)
  190. Format : PGS
  191. Muxing mode : zlib
  192. Codec ID : S_HDMV/PGS
  193. Codec ID/Info : Picture based subtitle format used on BDs/HD-DVDs
  194. Duration : 1 h 27 min
  195. Bit rate : 16.6 kb/s
  196. Count of elements : 1453
  197. Stream size : 10.4 MiB (0%)
  198. Language : Chinese
  199. Default : No
  200. Forced : No
  201. Original source medium : Blu-ray

  202. Text #8
  203. ID : 12
  204. ID in the original source medium : 4774 (0x12A6)
  205. Format : PGS
  206. Muxing mode : zlib
  207. Codec ID : S_HDMV/PGS
  208. Codec ID/Info : Picture based subtitle format used on BDs/HD-DVDs
  209. Duration : 1 h 17 min
  210. Bit rate : 19.0 kb/s
  211. Count of elements : 1459
  212. Stream size : 10.6 MiB (0%)
  213. Language : Chinese
  214. Default : No
  215. Forced : No
  216. Original source medium : Blu-ray

  217. Text #9
  218. ID : 13
  219. ID in the original source medium : 4775 (0x12A7)
  220. Format : PGS
  221. Muxing mode : zlib
  222. Codec ID : S_HDMV/PGS
  223. Codec ID/Info : Picture based subtitle format used on BDs/HD-DVDs
  224. Duration : 1 h 17 min
  225. Bit rate : 17.9 kb/s
  226. Count of elements : 1451
  227. Stream size : 9.93 MiB (0%)
  228. Language : Czech
  229. Default : No
  230. Forced : No
  231. Original source medium : Blu-ray

  232. Text #10
  233. ID : 14
  234. ID in the original source medium : 4776 (0x12A8)
  235. Format : PGS
  236. Muxing mode : zlib
  237. Codec ID : S_HDMV/PGS
  238. Codec ID/Info : Picture based subtitle format used on BDs/HD-DVDs
  239. Duration : 1 h 27 min
  240. Bit rate : 17.0 kb/s
  241. Count of elements : 1268
  242. Stream size : 10.7 MiB (0%)
  243. Language : Danish
  244. Default : No
  245. Forced : No
  246. Original source medium : Blu-ray

  247. Text #11
  248. ID : 15
  249. ID in the original source medium : 4777 (0x12A9)
  250. Format : PGS
  251. Muxing mode : zlib
  252. Codec ID : S_HDMV/PGS
  253. Codec ID/Info : Picture based subtitle format used on BDs/HD-DVDs
  254. Duration : 1 h 27 min
  255. Bit rate : 15.9 kb/s
  256. Count of elements : 1457
  257. Stream size : 9.97 MiB (0%)
  258. Language : Dutch
  259. Default : No
  260. Forced : No
  261. Original source medium : Blu-ray

  262. Text #12
  263. ID : 16
  264. ID in the original source medium : 4778 (0x12AA)
  265. Format : PGS
  266. Muxing mode : zlib
  267. Codec ID : S_HDMV/PGS
  268. Codec ID/Info : Picture based subtitle format used on BDs/HD-DVDs
  269. Duration : 1 h 17 min
  270. Bit rate : 20.0 kb/s
  271. Count of elements : 1465
  272. Stream size : 11.1 MiB (0%)
  273. Language : Estonian
  274. Default : No
  275. Forced : No
  276. Original source medium : Blu-ray

  277. Text #13
  278. ID : 17
  279. ID in the original source medium : 4779 (0x12AB)
  280. Format : PGS
  281. Muxing mode : zlib
  282. Codec ID : S_HDMV/PGS
  283. Codec ID/Info : Picture based subtitle format used on BDs/HD-DVDs
  284. Duration : 1 h 27 min
  285. Bit rate : 19.4 kb/s
  286. Count of elements : 1482
  287. Stream size : 12.2 MiB (0%)
  288. Language : Finnish
  289. Default : No
  290. Forced : No
  291. Original source medium : Blu-ray

  292. Text #14
  293. ID : 18
  294. ID in the original source medium : 4780 (0x12AC)
  295. Format : PGS
  296. Muxing mode : zlib
  297. Codec ID : S_HDMV/PGS
  298. Codec ID/Info : Picture based subtitle format used on BDs/HD-DVDs
  299. Duration : 1 h 27 min
  300. Bit rate : 13.7 kb/s
  301. Count of elements : 1444
  302. Stream size : 8.59 MiB (0%)
  303. Language : French
  304. Default : No
  305. Forced : No
  306. Original source medium : Blu-ray

  307. Text #15
  308. ID : 19
  309. ID in the original source medium : 4780 (0x12AC)
  310. Format : PGS
  311. Muxing mode : zlib
  312. Codec ID : S_HDMV/PGS
  313. Codec ID/Info : Picture based subtitle format used on BDs/HD-DVDs
  314. Duration : 1 h 19 min
  315. Bit rate : 258 b/s
  316. Count of elements : 22
  317. Stream size : 151 KiB (0%)
  318. Language : French
  319. Default : No
  320. Forced : No
  321. Original source medium : Blu-ray

  322. Text #16
  323. ID : 20
  324. ID in the original source medium : 4781 (0x12AD)
  325. Format : PGS
  326. Muxing mode : zlib
  327. Codec ID : S_HDMV/PGS
  328. Codec ID/Info : Picture based subtitle format used on BDs/HD-DVDs
  329. Duration : 1 h 27 min
  330. Bit rate : 18.8 kb/s
  331. Count of elements : 1474
  332. Stream size : 11.8 MiB (0%)
  333. Language : German
  334. Default : No
  335. Forced : No
  336. Original source medium : Blu-ray

  337. Text #17
  338. ID : 21
  339. ID in the original source medium : 4781 (0x12AD)
  340. Format : PGS
  341. Muxing mode : zlib
  342. Codec ID : S_HDMV/PGS
  343. Codec ID/Info : Picture based subtitle format used on BDs/HD-DVDs
  344. Duration : 1 h 14 min
  345. Bit rate : 369 b/s
  346. Count of elements : 16
  347. Stream size : 202 KiB (0%)
  348. Language : German
  349. Default : No
  350. Forced : No
  351. Original source medium : Blu-ray

  352. Text #18
  353. ID : 22
  354. ID in the original source medium : 4782 (0x12AE)
  355. Format : PGS
  356. Muxing mode : zlib
  357. Codec ID : S_HDMV/PGS
  358. Codec ID/Info : Picture based subtitle format used on BDs/HD-DVDs
  359. Duration : 1 h 27 min
  360. Bit rate : 15.2 kb/s
  361. Count of elements : 1490
  362. Stream size : 9.53 MiB (0%)
  363. Language : Hindi
  364. Default : No
  365. Forced : No
  366. Original source medium : Blu-ray

  367. Text #19
  368. ID : 23
  369. ID in the original source medium : 4783 (0x12AF)
  370. Format : PGS
  371. Muxing mode : zlib
  372. Codec ID : S_HDMV/PGS
  373. Codec ID/Info : Picture based subtitle format used on BDs/HD-DVDs
  374. Duration : 1 h 27 min
  375. Bit rate : 17.9 kb/s
  376. Count of elements : 1482
  377. Stream size : 11.3 MiB (0%)
  378. Language : Hungarian
  379. Default : No
  380. Forced : No
  381. Original source medium : Blu-ray

  382. Text #20
  383. ID : 24
  384. ID in the original source medium : 4784 (0x12B0)
  385. Format : PGS
  386. Muxing mode : zlib
  387. Codec ID : S_HDMV/PGS
  388. Codec ID/Info : Picture based subtitle format used on BDs/HD-DVDs
  389. Duration : 1 h 27 min
  390. Bit rate : 20.2 kb/s
  391. Count of elements : 1465
  392. Stream size : 12.7 MiB (0%)
  393. Language : Italian
  394. Default : No
  395. Forced : No
  396. Original source medium : Blu-ray

  397. Text #21
  398. ID : 25
  399. ID in the original source medium : 4784 (0x12B0)
  400. Format : PGS
  401. Muxing mode : zlib
  402. Codec ID : S_HDMV/PGS
  403. Codec ID/Info : Picture based subtitle format used on BDs/HD-DVDs
  404. Duration : 56 min 27 s
  405. Bit rate : 280 b/s
  406. Count of elements : 14
  407. Stream size : 116 KiB (0%)
  408. Language : Italian
  409. Default : No
  410. Forced : No
  411. Original source medium : Blu-ray

  412. Text #22
  413. ID : 26
  414. ID in the original source medium : 4785 (0x12B1)
  415. Format : PGS
  416. Muxing mode : zlib
  417. Codec ID : S_HDMV/PGS
  418. Codec ID/Info : Picture based subtitle format used on BDs/HD-DVDs
  419. Duration : 1 h 27 min
  420. Bit rate : 13.6 kb/s
  421. Count of elements : 1164
  422. Stream size : 8.49 MiB (0%)
  423. Language : Japanese
  424. Default : No
  425. Forced : No
  426. Original source medium : Blu-ray

  427. Text #23
  428. ID : 27
  429. ID in the original source medium : 4786 (0x12B2)
  430. Format : PGS
  431. Muxing mode : zlib
  432. Codec ID : S_HDMV/PGS
  433. Codec ID/Info : Picture based subtitle format used on BDs/HD-DVDs
  434. Duration : 1 h 27 min
  435. Bit rate : 11.0 kb/s
  436. Count of elements : 1417
  437. Stream size : 6.93 MiB (0%)
  438. Language : Korean
  439. Default : No
  440. Forced : No
  441. Original source medium : Blu-ray

  442. Text #24
  443. ID : 28
  444. ID in the original source medium : 4787 (0x12B3)
  445. Format : PGS
  446. Muxing mode : zlib
  447. Codec ID : S_HDMV/PGS
  448. Codec ID/Info : Picture based subtitle format used on BDs/HD-DVDs
  449. Duration : 1 h 17 min
  450. Bit rate : 20.5 kb/s
  451. Count of elements : 1487
  452. Stream size : 11.4 MiB (0%)
  453. Language : Lithuanian
  454. Default : No
  455. Forced : No
  456. Original source medium : Blu-ray

  457. Text #25
  458. ID : 29
  459. ID in the original source medium : 4788 (0x12B4)
  460. Format : PGS
  461. Muxing mode : zlib
  462. Codec ID : S_HDMV/PGS
  463. Codec ID/Info : Picture based subtitle format used on BDs/HD-DVDs
  464. Duration : 1 h 27 min
  465. Bit rate : 16.6 kb/s
  466. Count of elements : 1347
  467. Stream size : 10.4 MiB (0%)
  468. Language : Norwegian
  469. Default : No
  470. Forced : No
  471. Original source medium : Blu-ray

  472. Text #26
  473. ID : 30
  474. ID in the original source medium : 4789 (0x12B5)
  475. Format : PGS
  476. Muxing mode : zlib
  477. Codec ID : S_HDMV/PGS
  478. Codec ID/Info : Picture based subtitle format used on BDs/HD-DVDs
  479. Duration : 1 h 17 min
  480. Bit rate : 17.3 kb/s
  481. Count of elements : 1379
  482. Stream size : 9.64 MiB (0%)
  483. Language : Polish
  484. Default : No
  485. Forced : No
  486. Original source medium : Blu-ray

  487. Text #27
  488. ID : 31
  489. ID in the original source medium : 4790 (0x12B6)
  490. Format : PGS
  491. Muxing mode : zlib
  492. Codec ID : S_HDMV/PGS
  493. Codec ID/Info : Picture based subtitle format used on BDs/HD-DVDs
  494. Duration : 1 h 27 min
  495. Bit rate : 18.4 kb/s
  496. Count of elements : 1463
  497. Stream size : 11.6 MiB (0%)
  498. Language : Romanian
  499. Default : No
  500. Forced : No
  501. Original source medium : Blu-ray

  502. Text #28
  503. ID : 32
  504. ID in the original source medium : 4791 (0x12B7)
  505. Format : PGS
  506. Muxing mode : zlib
  507. Codec ID : S_HDMV/PGS
  508. Codec ID/Info : Picture based subtitle format used on BDs/HD-DVDs
  509. Duration : 1 h 19 min
  510. Bit rate : 19.3 kb/s
  511. Count of elements : 1469
  512. Stream size : 10.9 MiB (0%)
  513. Language : Russian
  514. Default : No
  515. Forced : No
  516. Original source medium : Blu-ray

  517. Text #29
  518. ID : 33
  519. ID in the original source medium : 4792 (0x12B8)
  520. Format : PGS
  521. Muxing mode : zlib
  522. Codec ID : S_HDMV/PGS
  523. Codec ID/Info : Picture based subtitle format used on BDs/HD-DVDs
  524. Duration : 1 h 27 min
  525. Bit rate : 17.0 kb/s
  526. Count of elements : 1480
  527. Stream size : 10.7 MiB (0%)
  528. Language : Slovak
  529. Default : No
  530. Forced : No
  531. Original source medium : Blu-ray

  532. Text #30
  533. ID : 34
  534. ID in the original source medium : 4793 (0x12B9)
  535. Format : PGS
  536. Muxing mode : zlib
  537. Codec ID : S_HDMV/PGS
  538. Codec ID/Info : Picture based subtitle format used on BDs/HD-DVDs
  539. Duration : 1 h 27 min
  540. Bit rate : 16.0 kb/s
  541. Count of elements : 1394
  542. Stream size : 10.1 MiB (0%)
  543. Language : Spanish
  544. Default : No
  545. Forced : No
  546. Original source medium : Blu-ray

  547. Text #31
  548. ID : 35
  549. ID in the original source medium : 4793 (0x12B9)
  550. Format : PGS
  551. Muxing mode : zlib
  552. Codec ID : S_HDMV/PGS
  553. Codec ID/Info : Picture based subtitle format used on BDs/HD-DVDs
  554. Duration : 56 min 27 s
  555. Bit rate : 240 b/s
  556. Count of elements : 14
  557. Stream size : 99.5 KiB (0%)
  558. Language : Spanish
  559. Default : No
  560. Forced : No
  561. Original source medium : Blu-ray

  562. Text #32
  563. ID : 36
  564. ID in the original source medium : 4794 (0x12BA)
  565. Format : PGS
  566. Muxing mode : zlib
  567. Codec ID : S_HDMV/PGS
  568. Codec ID/Info : Picture based subtitle format used on BDs/HD-DVDs
  569. Duration : 1 h 27 min
  570. Bit rate : 17.7 kb/s
  571. Count of elements : 1437
  572. Stream size : 11.1 MiB (0%)
  573. Language : Spanish
  574. Default : No
  575. Forced : No
  576. Original source medium : Blu-ray

  577. Text #33
  578. ID : 37
  579. ID in the original source medium : 4794 (0x12BA)
  580. Format : PGS
  581. Muxing mode : zlib
  582. Codec ID : S_HDMV/PGS
  583. Codec ID/Info : Picture based subtitle format used on BDs/HD-DVDs
  584. Duration : 56 min 27 s
  585. Bit rate : 265 b/s
  586. Count of elements : 14
  587. Stream size : 110 KiB (0%)
  588. Language : Spanish
  589. Default : No
  590. Forced : No
  591. Original source medium : Blu-ray

  592. Text #34
  593. ID : 38
  594. ID in the original source medium : 4795 (0x12BB)
  595. Format : PGS
  596. Muxing mode : zlib
  597. Codec ID : S_HDMV/PGS
  598. Codec ID/Info : Picture based subtitle format used on BDs/HD-DVDs
  599. Duration : 1 h 27 min
  600. Bit rate : 14.7 kb/s
  601. Count of elements : 1362
  602. Stream size : 9.22 MiB (0%)
  603. Language : Swedish
  604. Default : No
  605. Forced : No
  606. Original source medium : Blu-ray

  607. Text #35
  608. ID : 39
  609. ID in the original source medium : 4796 (0x12BC)
  610. Format : PGS
  611. Muxing mode : zlib
  612. Codec ID : S_HDMV/PGS
  613. Codec ID/Info : Picture based subtitle format used on BDs/HD-DVDs
  614. Duration : 1 h 27 min
  615. Bit rate : 17.0 kb/s
  616. Count of elements : 1448
  617. Stream size : 10.7 MiB (0%)
  618. Language : Thai
  619. Default : No
  620. Forced : No
  621. Original source medium : Blu-ray

  622. Text #36
  623. ID : 40
  624. ID in the original source medium : 4797 (0x12BD)
  625. Format : PGS
  626. Muxing mode : zlib
  627. Codec ID : S_HDMV/PGS
  628. Codec ID/Info : Picture based subtitle format used on BDs/HD-DVDs
  629. Duration : 1 h 17 min
  630. Bit rate : 19.7 kb/s
  631. Count of elements : 1436
  632. Stream size : 11.0 MiB (0%)
  633. Language : Turkish
  634. Default : No
  635. Forced : No
  636. Original source medium : Blu-ray

  637. Text #37
  638. ID : 41
  639. ID in the original source medium : 4798 (0x12BE)
  640. Format : PGS
  641. Muxing mode : zlib
  642. Codec ID : S_HDMV/PGS
  643. Codec ID/Info : Picture based subtitle format used on BDs/HD-DVDs
  644. Duration : 57 min 35 s
  645. Bit rate : 399 b/s
  646. Count of elements : 20
  647. Stream size : 168 KiB (0%)
  648. Language : French
  649. Default : No
  650. Forced : No
  651. Original source medium : Blu-ray

  652. Menu
  653. 00:00:00.000 : en:Chapter 01
  654. 00:04:25.056 : en:Chapter 02
  655. 00:08:03.399 : en:Chapter 03
  656. 00:16:19.103 : en:Chapter 04
  657. 00:21:17.234 : en:Chapter 05
  658. 00:24:48.695 : en:Chapter 06
  659. 00:30:28.785 : en:Chapter 07
  660. 00:35:32.505 : en:Chapter 08
  661. 00:40:03.943 : en:Chapter 09
  662. 00:45:25.889 : en:Chapter 10
  663. 00:52:41.116 : en:Chapter 11
  664. 00:57:20.437 : en:Chapter 12
  665. 01:02:52.935 : en:Chapter 13
  666. 01:07:42.725 : en:Chapter 14
  667. 01:12:17.499 : en:Chapter 15
  668. 01:16:40.220 : en:Chapter 16
复制代码









回复

使用道具 举报

蓝光币
119
发表于 2021-10-27 14:38:20 | 显示全部楼层

楼主太厉害了!楼主,电影应该很好看我觉得蓝光电影网真是个好地方!
回复 支持 反对

使用道具 举报

懒得打字嘛,点击右侧快捷回复 【右侧内容,后台自定义】
您需要登录后才可以回帖 登录 | 立即加入

本版积分规则

Archiver|小黑屋| 蓝光电影网 |网站地图

Copyright © 2021 Comsenz Inc. Powered by 蓝光电影网

蓝光电影网

本站内容由用户自主分享和转载自互联网,转载目的在于传递更多信息,并不代表本网赞同其观点和对其真实性负责。

如有侵权、违反国家法律政策行为,请联系我们,我们会第一时间及时清除和处理!

举报反馈邮箱:[email protected]

快速回复 返回顶部 返回列表