找回密码

蓝光电影网

查看: 265|回复: 1

[科幻] 时栈中的指针/时光的针脚 Needle.in.a.Timestack.2021.720p.BluRay.x264-WoAT 1.85GB

[复制链接]
蓝光币
682
发表于 2021-10-27 11:24:17 | 显示全部楼层 |阅读模式


◎译  名 时栈中的指针/时光的针脚
◎片  名 Needle in a Timestack
◎年  代 2021
◎产  地 美国
◎类  别 科幻
◎语  言 英语
◎上映日期 2021-10-15(美国)
◎豆瓣评分 5.2/10 from 85 users
◎豆瓣链接 https://movie.douban.com/subject/27019572/
◎导  演 约翰·里德利 John Ridley
◎编  剧 约翰·里德利 John Ridley / 罗伯特·西尔弗伯格 Robert Silverberg
◎主  演 辛西娅·艾莉佛 Cynthia Erivo
       蕾斯拉·德·奥利维拉 Laysla De Oliveira
       奥兰多·布鲁姆 Orlando Bloom
       小莱斯利·奥多姆 Leslie Odom Jr.
       亚历桑德罗·朱利安尼 Alessandro Juliani
       芙蕾达·平托 Freida Pinto
       神奈川宏幸 Hiro Kanagawa
       乔安娜·纽马奇 Johannah Newmarch
       詹姆斯·柯克 James Kirk
       伊丽莎白·韦恩斯坦 Elizabeth Weinstein
       Jadyn Wong Jadyn Wong
◎标  签 科幻 | 恋爱 | 美国 | Orlando | Bloom | 待看 | 2021 | 美国电影
◎简  介


  奥兰多·布鲁姆、芙蕾达·平托、小莱斯利·奥多姆、Cynthia Erivo将主演约翰·雷德利(《美国重案》)执导新片《时栈中的指针》(Needle in a Timestack),Bron Studios建造。
  
  基于Robert Silverberg写的短篇,雷德利改编剧本,设定在一个存在时候观光的天下里,一对夫妻尽力维系着婚姻,曩昔和现在总是摇摆不定。
  1. Video
  2. ID                                       : 1
  3. Format                                   : AVC
  4. Format/Info                              : Advanced Video Codec
  5. Format profile                           : [email protected]
  6. Format settings                          : CABAC / 8 Ref Frames
  7. Format settings, CABAC                   : Yes
  8. Format settings, Reference frames        : 8 frames
  9. Codec ID                                 : V_MPEG4/ISO/AVC
  10. Duration                                 : 1 h 51 min
  11. Bit rate                                 : 1 702 kb/s
  12. Width                                    : 1 280 pixels
  13. Height                                   : 536 pixels
  14. Display aspect ratio                     : 2.40:1
  15. Frame rate mode                          : Constant
  16. Frame rate                               : 23.976 (24000/1001/189150) FPS
  17. Color space                              : YUV
  18. Chroma subsampling                       : 4:2:0
  19. Bit depth                                : 8 bits
  20. Scan type                                : Progressive
  21. Bits/(Pixel*Frame)                       : 0.103
  22. Stream size                              : 1.33 GiB (72%)
  23. Writing library                          : x264 core 164 r3075 66a5bc1
  24. Encoding settings                        : cabac=1 / ref=8 / deblock=1:-3:-3 / analyse=0x3:0x133 / me=umh / subme=9 / psy=1 / psy_rd=1.00:0.00 / mixed_ref=1 / me_range=32 / chroma_me=1 / trellis=2 / 8x8dct=1 / cqm=0 / deadzone=21,11 / fast_pskip=0 / chroma_qp_offset=-2 / threads=16 / lookahead_threads=2 / sliced_threads=0 / nr=0 / decimate=0 / interlaced=0 / bluray_compat=0 / constrained_intra=0 / bframes=8 / b_pyramid=2 / b_adapt=2 / b_bias=0 / direct=3 / weightb=1 / open_gop=0 / weightp=2 / keyint=250 / keyint_min=23 / scenecut=40 / intra_refresh=0 / rc_lookahead=60 / rc=crf / mbtree=1 / crf=17.0 / qcomp=0.60 / qpmin=0 / qpmax=69 / qpstep=4 / ip_ratio=1.40 / aq=3:0.88
  25. Default                                  : Yes
  26. Forced                                   : No
  27. Color range                              : Limited
  28. Matrix coefficients                      : BT.709

  29. Audio
  30. ID                                       : 2
  31. Format                                   : AC-3
  32. Format/Info                              : Audio Coding 3
  33. Commercial name                          : Dolby Digital
  34. Codec ID                                 : A_AC3
  35. Duration                                 : 1 h 51 min
  36. Bit rate mode                            : Constant
  37. Bit rate                                 : 640 kb/s
  38. Channel(s)                               : 6 channels
  39. Channel layout                           : L R C LFE Ls Rs
  40. Sampling rate                            : 48.0 kHz
  41. Frame rate                               : 31.250 FPS (1536 SPF)
  42. Compression mode                         : Lossy
  43. Stream size                              : 511 MiB (27%)
  44. Title                                    : English
  45. Language                                 : English
  46. Service kind                             : Complete Main
  47. Default                                  : No
  48. Forced                                   : No

  49. Text #1
  50. ID                                       : 3
  51. Format                                   : PGS
  52. Muxing mode                              : zlib
  53. Codec ID                                 : S_HDMV/PGS
  54. Codec ID/Info                            : Picture based subtitle format used on BDs/HD-DVDs
  55. Duration                                 : 1 h 47 min
  56. Bit rate                                 : 34.2 kb/s
  57. Count of elements                        : 2541
  58. Stream size                              : 26.3 MiB (1%)
  59. Title                                    : English
  60. Language                                 : English
  61. Default                                  : No
  62. Forced                                   : No

  63. Text #2
  64. ID                                       : 4
  65. Format                                   : PGS
  66. Muxing mode                              : zlib
  67. Codec ID                                 : S_HDMV/PGS
  68. Codec ID/Info                            : Picture based subtitle format used on BDs/HD-DVDs
  69. Duration                                 : 1 h 42 min
  70. Bit rate                                 : 29.1 kb/s
  71. Count of elements                        : 2246
  72. Stream size                              : 21.3 MiB (1%)
  73. Title                                    : Spanish
  74. Language                                 : Spanish
  75. Default                                  : No
  76. Forced                                   : No

  77. Menu
  78. 00:00:00.000                             : Chapter 01
  79. 00:04:31.188                             : Chapter 02
  80. 00:16:55.181                             : Chapter 03
  81. 00:24:36.558                             : Chapter 04
  82. 00:31:19.503                             : Chapter 05
  83. 00:38:45.907                             : Chapter 06
  84. 00:45:33.230                             : Chapter 07
  85. 00:49:52.656                             : Chapter 08
  86. 00:53:35.504                             : Chapter 09
  87. 01:01:07.747                             : Chapter 10
  88. 01:06:32.822                             : Chapter 11
  89. 01:11:25.656                             : Chapter 12
  90. 01:19:39.441                             : Chapter 13
  91. 01:28:06.823                             : Chapter 14
  92. 01:32:47.395                             : Chapter 15
  93. 01:38:47.755                             : Chapter 16
复制代码





                                       
                                       

                                       
                                       
                                       




回复

使用道具 举报

蓝光币
30
发表于 2021-11-2 11:26:28 | 显示全部楼层

这东西我收了!谢谢楼主!蓝光电影网真好!
回复 支持 反对

使用道具 举报

懒得打字嘛,点击右侧快捷回复 【右侧内容,后台自定义】
您需要登录后才可以回帖 登录 | 立即加入

本版积分规则

Archiver|小黑屋| 蓝光电影网 |网站地图

Copyright © 2021 Comsenz Inc. Powered by 蓝光电影网

蓝光电影网

本站内容由用户自主分享和转载自互联网,转载目的在于传递更多信息,并不代表本网赞同其观点和对其真实性负责。

如有侵权、违反国家法律政策行为,请联系我们,我们会第一时间及时清除和处理!

举报反馈邮箱:[email protected]

快速回复 返回顶部 返回列表