找回密码

蓝光电影网

查看: 179|回复: 1

[其他] 托斯卡之吻 Toscas.Kiss.1984.ITALIAN.1080p.BluRay.x264.FLAC.2.0-HANDJOB 7.57GB

[复制链接]
蓝光币
682
发表于 2021-10-29 09:24:38 | 显示全部楼层 |阅读模式
[img][/img]

◎译  名 托斯卡之吻/Tosca's Kiss/トスカの接吻
◎片  名 Il bacio di Tosca
◎年  代 1984
◎产  地 瑞士
◎类  别 记载片 / 音乐
◎语  言 意大利语
◎上映日期 1984
◎豆瓣评分 /10 from 0 users
◎豆瓣链接 https://movie.douban.com/subject/5049491/
◎片  长 87分钟
◎导  演 丹尼尔·施密德 Daniel Schmid
◎主  演 Giulietta Simionato Giulietta Simionato
◎标  签 音乐 | 记载片 | 瑞士 | 丹尼尔·施密德 | x | SchmidDaniel | P-LocarnoC非比赛展映 | AB
◎简  介


  Meet the inhabitants of the "Casa di Riposa" in Milan, the world's first nursing home for retired opera singers, founded by composer Giuseppe Verdi in 1896. In his documentary film Tosca's Kiss, which has developed an underground cult following over the years and is a favorite among opera and music lovers worldwide, director Daniel Schmid has captured a world in which these wonderful singers (many of whom had significant careers on the opera stage) re-live and re-enact their triumphant roles of the glorious past. Tosca's Kiss is a touching and often hilarious film on the subject of aging and the power and timeless capacity of music to inspire.
  1. Video
  2. ID                                       : 1
  3. Format                                   : AVC
  4. Format/Info                              : Advanced Video Codec
  5. Format profile                           : [email protected]
  6. Format settings                          : CABAC / 5 Ref Frames
  7. Format settings, CABAC                   : Yes
  8. Format settings, Reference frames        : 5 frames
  9. Codec ID                                 : V_MPEG4/ISO/AVC
  10. Duration                                 : 1 h 27 min
  11. Bit rate                                 : 11.9 Mb/s
  12. Width                                    : 1 476 pixels
  13. Height                                   : 1 080 pixels
  14. Display aspect ratio                     : 4:3
  15. Frame rate mode                          : Constant
  16. Frame rate                               : 23.976 (24000/1001/189150) FPS
  17. Color space                              : YUV
  18. Chroma subsampling                       : 4:2:0
  19. Bit depth                                : 8 bits
  20. Scan type                                : Progressive
  21. Bits/(Pixel*Frame)                       : 0.311
  22. Stream size                              : 7.30 GiB (96%)
  23. Writing library                          : x264 core 157 r2935 545de2f
  24. Encoding settings                        : cabac=1 / ref=5 / deblock=1:-3:-3 / analyse=0x3:0x133 / me=umh / subme=10 / psy=1 / psy_rd=1.00:0.00 / mixed_ref=1 / me_range=32 / chroma_me=1 / trellis=2 / 8x8dct=1 / cqm=0 / deadzone=21,11 / fast_pskip=0 / chroma_qp_offset=-2 / threads=34 / lookahead_threads=8 / sliced_threads=0 / nr=0 / decimate=0 / interlaced=0 / bluray_compat=0 / constrained_intra=0 / bframes=16 / b_pyramid=2 / b_adapt=2 / b_bias=0 / direct=3 / weightb=1 / open_gop=0 / weightp=2 / keyint=240 / keyint_min=24 / scenecut=40 / intra_refresh=0 / rc_lookahead=60 / rc=crf / mbtree=0 / crf=22.0 / qcomp=0.65 / qpmin=0 / qpmax=69 / qpstep=4 / vbv_maxrate=62500 / vbv_bufsize=78125 / crf_max=0.0 / nal_hrd=none / filler=0 / ip_ratio=1.40 / pb_ratio=1.30 / aq=2:0.80
  25. Default                                  : Yes
  26. Forced                                   : No
  27. Color range                              : Limited
  28. Color primaries                          : BT.709
  29. Transfer characteristics                 : BT.709
  30. Matrix coefficients                      : BT.709
  31. Audio
  32. ID                                       : 2
  33. Format                                   : FLAC
  34. Format/Info                              : Free Lossless Audio Codec
  35. Codec ID                                 : A_FLAC
  36. Duration                                 : 1 h 27 min
  37. Bit rate mode                            : Variable
  38. Bit rate                                 : 402 kb/s
  39. Channel(s)                               : 2 channels
  40. Channel layout                           : L R
  41. Sampling rate                            : 48.0 kHz
  42. Frame rate                               : 11.719 FPS (4096 SPF)
  43. Bit depth                                : 16 bits
  44. Compression mode                         : Lossless
  45. Stream size                              : 253 MiB (3%)
  46. Writing library                          : libFLAC 1.2.1 (UTC 2007-09-17)
  47. Language                                 : Italian
  48. Default                                  : Yes
  49. Forced                                   : No
  50. Text #1
  51. ID                                       : 3
  52. Format                                   : UTF-8
  53. Codec ID                                 : S_TEXT/UTF8
  54. Codec ID/Info                            : UTF-8 Plain Text
  55. Duration                                 : 1 h 27 min
  56. Bit rate                                 : 34 b/s
  57. Count of elements                        : 802
  58. Stream size                              : 22.1 KiB (0%)
  59. Language                                 : English
  60. Default                                  : Yes
  61. Forced                                   : No
  62. Text #2
  63. ID                                       : 4
  64. Format                                   : PGS
  65. Muxing mode                              : zlib
  66. Codec ID                                 : S_HDMV/PGS
  67. Codec ID/Info                            : Picture based subtitle format used on BDs/HD-DVDs
  68. Duration                                 : 1 h 25 min
  69. Bit rate                                 : 72.0 kb/s
  70. Count of elements                        : 3425
  71. Stream size                              : 44.3 MiB (0%)
  72. Language                                 : Japanese
  73. Default                                  : No
  74. Forced                                   : No
  75. Menu
  76. 00:00:00.000                             : :Chapter 1
  77. 00:04:27.476                             : :Chapter 2
  78. 00:05:26.368                             : :Chapter 3
  79. 00:09:04.210                             : :Chapter 4
  80. 00:14:15.730                             : :Chapter 5
  81. 00:21:20.863                             : :Chapter 6
  82. 00:30:04.052                             : :Chapter 7
  83. 00:39:25.613                             : :Chapter 8
  84. 00:46:56.147                             : :Chapter 9
  85. 00:53:59.945                             : :Chapter 10
  86. 01:00:36.466                             : :Chapter 11
  87. 01:08:05.873                             : :Chapter 12
  88. 01:18:25.367                             : :Chapter 13
  89. 01:21:21.877                             : :Chapter 14
  90. 01:23:42.267                             : :Chapter 15
复制代码




                                       
                                       

                                       
                                       
                                       




回复

使用道具 举报

蓝光币
66
发表于 2021-11-4 22:26:11 | 显示全部楼层

论坛不能没有像楼主这样的人才啊!我会一直支持蓝光电影网。
回复 支持 反对

使用道具 举报

懒得打字嘛,点击右侧快捷回复 【右侧内容,后台自定义】
您需要登录后才可以回帖 登录 | 立即加入

本版积分规则

Archiver|小黑屋| 蓝光电影网 |网站地图

Copyright © 2021 Comsenz Inc. Powered by 蓝光电影网

蓝光电影网

本站内容由用户自主分享和转载自互联网,转载目的在于传递更多信息,并不代表本网赞同其观点和对其真实性负责。

如有侵权、违反国家法律政策行为,请联系我们,我们会第一时间及时清除和处理!

举报反馈邮箱:[email protected]

快速回复 返回顶部 返回列表