找回密码

蓝光电影网

查看: 278|回复: 0

[恐怖] 地狱屋2 Hell.House.Llc.II.the.Abaddon.Hotel.2018.1080p.BluRay.x264.DD5.1-EDPH 9.80GB

[复制链接]
蓝光币
682
发表于 2021-10-29 11:34:14 | 显示全部楼层 |阅读模式


◎译  名 天堂屋2
◎片  名 Hell House LLC II: The Abaddon Hotel
◎年  代 2018
◎产  地 美国
◎类  别 可骇
◎语  言 英语
◎上映日期 2018-09-20(美国)
◎豆瓣评分 5.2/10 from 388 users
◎豆瓣链接 https://movie.douban.com/subject/30300915/
◎片  长 89分钟
◎导  演 史蒂芬·考格内提 Stephen Cognetti
◎编  剧 史蒂芬·考格内提 Stephen Cognetti
◎主  演 爱丽丝·巴尔克 Alice Bahlke
       丹尼·贝利尼 Danny Bellini
       劳伦·A·肯尼迪 Lauren A. Kennedy
       亚当·施奈德 Adam Schneider
◎标  签 可骇 | 伪记载片 | 美国 | 惊悚 | 电影 | 伪记载 | 2018 | 美国电影
◎简  介


  It's been eight years since the opening night tragedy of Hell House, LLC and still many unanswered questions remain. Thanks to an anonymous tip, investigative journalist Jessica Fox is convinced that key evidence is hidden inside the abandoned Abaddon Hotel-evidence that will shed light on the hotel's mysteries. She assembles a team equally hungry for answers with one goal: break into the hotel and discover the truth.
  1. Video
  2. ID                                       : 1
  3. Format                                   : AVC
  4. Format/Info                              : Advanced Video Codec
  5. Format profile                           : [email protected]
  6. Format settings                          : CABAC / 4 Ref Frames
  7. Format settings, CABAC                   : Yes
  8. Format settings, Reference frames        : 4 frames
  9. Codec ID                                 : V_MPEG4/ISO/AVC
  10. Duration                                 : 1 h 29 min
  11. Bit rate                                 : 14.9 Mb/s
  12. Width                                    : 1 920 pixels
  13. Height                                   : 1 080 pixels
  14. Display aspect ratio                     : 16:9
  15. Frame rate mode                          : Constant
  16. Frame rate                               : 23.976 (24000/1001/189150) FPS
  17. Color space                              : YUV
  18. Chroma subsampling                       : 4:2:0
  19. Bit depth                                : 8 bits
  20. Scan type                                : Progressive
  21. Bits/(Pixel*Frame)                       : 0.301
  22. Stream size                              : 9.34 GiB (95%)
  23. Writing library                          : x264 core 160 r3009 4c9b076
  24. Encoding settings                        : cabac=1 / ref=4 / deblock=1:-3:-3 / analyse=0x3:0x133 / me=umh / subme=11 / psy=1 / psy_rd=1.02:0.00 / mixed_ref=1 / me_range=32 / chroma_me=1 / trellis=2 / 8x8dct=1 / cqm=0 / deadzone=21,11 / fast_pskip=0 / chroma_qp_offset=-2 / threads=34 / lookahead_threads=8 / sliced_threads=0 / nr=0 / decimate=0 / interlaced=0 / bluray_compat=0 / constrained_intra=0 / bframes=16 / b_pyramid=2 / b_adapt=2 / b_bias=0 / direct=3 / weightb=1 / open_gop=0 / weightp=2 / keyint=250 / keyint_min=23 / scenecut=40 / intra_refresh=0 / rc_lookahead=250 / rc=crf / mbtree=0 / crf=18.0 / qcomp=0.60 / qpmin=0 / qpmax=69 / qpstep=4 / vbv_maxrate=62500 / vbv_bufsize=78125 / crf_max=0.0 / nal_hrd=none / filler=0 / ip_ratio=1.30 / pb_ratio=1.20 / aq=3:0.80
  25. Language                                 : English
  26. Default                                  : Yes
  27. Forced                                   : No
  28. Color range                              : Limited
  29. Color primaries                          : BT.709
  30. Matrix coefficients                      : BT.709
  31. Audio #1
  32. ID                                       : 2
  33. Format                                   : AC-3
  34. Format/Info                              : Audio Coding 3
  35. Commercial name                          : Dolby Digital
  36. Codec ID                                 : A_AC3
  37. Duration                                 : 1 h 29 min
  38. Bit rate mode                            : Constant
  39. Bit rate                                 : 640 kb/s
  40. Channel(s)                               : 6 channels
  41. Channel layout                           : L R C LFE Ls Rs
  42. Sampling rate                            : 48.0 kHz
  43. Frame rate                               : 31.250 FPS (1536 SPF)
  44. Compression mode                         : Lossy
  45. Stream size                              : 410 MiB (4%)
  46. Language                                 : English
  47. Service kind                             : Complete Main
  48. Default                                  : Yes
  49. Forced                                   : No
  50. Audio #2
  51. ID                                       : 3
  52. Format                                   : AAC LC
  53. Format/Info                              : Advanced Audio Codec Low Complexity
  54. Codec ID                                 : A_AAC-2
  55. Duration                                 : 1 h 29 min
  56. Bit rate                                 : 82.7 kb/s
  57. Channel(s)                               : 2 channels
  58. Channel layout                           : L R
  59. Sampling rate                            : 48.0 kHz
  60. Frame rate                               : 46.875 FPS (1024 SPF)
  61. Compression mode                         : Lossy
  62. Stream size                              : 53.0 MiB (0%)
  63. Title                                    : Audio commentary with writer-director Stephen Cognetti
  64. Language                                 : English
  65. Default                                  : No
  66. Forced                                   : No
  67. Text
  68. ID                                       : 4
  69. Format                                   : UTF-8
  70. Codec ID                                 : S_TEXT/UTF8
  71. Codec ID/Info                            : UTF-8 Plain Text
  72. Duration                                 : 1 h 29 min
  73. Bit rate                                 : 81 b/s
  74. Count of elements                        : 1643
  75. Stream size                              : 53.3 KiB (0%)
  76. Language                                 : English
  77. Default                                  : Yes
  78. Forced                                   : No
  79. Menu
  80. 00:00:00.000                             : :Chapter 01
  81. 00:07:19.439                             : :Chapter 02
  82. 00:16:37.997                             : :Chapter 03
  83. 00:20:14.213                             : :Chapter 04
  84. 00:26:02.561                             : :Chapter 05
  85. 00:29:44.783                             : :Chapter 06
  86. 00:37:04.222                             : :Chapter 07
  87. 00:42:34.552                             : :Chapter 08
  88. 00:52:59.176                             : :Chapter 09
  89. 01:01:07.664                             : :Chapter 10
  90. 01:10:12.208                             : :Chapter 11
  91. 01:17:16.632                             : :Chapter 12
  92. 01:25:14.109                             : :Chapter 13
复制代码







                                       
                                       

                                       
                                       
                                       




回复

使用道具 举报

懒得打字嘛,点击右侧快捷回复 【右侧内容,后台自定义】
您需要登录后才可以回帖 登录 | 立即加入

本版积分规则

Archiver|小黑屋| 蓝光电影网 |网站地图

Copyright © 2021 Comsenz Inc. Powered by 蓝光电影网

蓝光电影网

本站内容由用户自主分享和转载自互联网,转载目的在于传递更多信息,并不代表本网赞同其观点和对其真实性负责。

如有侵权、违反国家法律政策行为,请联系我们,我们会第一时间及时清除和处理!

举报反馈邮箱:[email protected]

快速回复 返回顶部 返回列表