找回密码

蓝光电影网

查看: 354|回复: 0

[2160p-WEB] 鬼影实录6 Paranormal.Activity.Next.of.Kin.2021.2160p.AMZN.WEB-DL.x265.10bit.HDR10Plus.DDP5.1-TEPES 10.20GB

[复制链接]
蓝光币
733
发表于 2021-10-29 15:34:05 | 显示全部楼层 |阅读模式


◎译  名 鬼影实录6
◎片  名 Paranormal Activity: Next of Kin
◎年  代 2021
◎产  地 美国
◎类  别 悬疑 / 惊悚 / 可骇
◎语  言 英语
◎上映日期 2021-10-29(美国)
◎豆瓣评分 /10 from 0 users
◎豆瓣链接 https://movie.douban.com/subject/34884170/
◎导  演 威廉·尤班克 William Eubank
◎编  剧 克里斯托弗·兰登 Christopher Landon
◎主  演 罗兰·巴克三世 Roland Buck III
       吉尔·安德烈 Jill Andre
       艾米丽·巴德 Emily Bader
       汤姆·诺维茨基 Tom Nowicki
       古纳尔·怀特 Gunner Wright
       克里·锡安 Kyli Zion
◎标  签 可骇 | 伪记载片 | 惊悚 | 灵异 | 美国 | 2021 | 美国电影 | 宗教
◎简  介


  派拉蒙为下一部[鬼影实录]系列新电影定下2021年3月19日北美档期。[鬼影实录6]的导演和卡司今朝暂不得知。
  1. Video
  2. ID                                       : 1
  3. Format                                   : HEVC
  4. Format/Info                              : High Efficiency Video Coding
  5. Format profile                           : Main [email protected]@High
  6. HDR format                               : SMPTE ST 2094 App 4, Version 1, HDR10+ Profile B compatible
  7. Codec ID                                 : V_MPEGH/ISO/HEVC
  8. Duration                                 : 1 h 38 min
  9. Bit rate                                 : 14.2 Mb/s
  10. Width                                    : 3 840 pixels
  11. Height                                   : 2 160 pixels
  12. Display aspect ratio                     : 16:9
  13. Frame rate mode                          : Constant
  14. Frame rate                               : 23.976 (24000/1001/189150) FPS
  15. Color space                              : YUV
  16. Chroma subsampling                       : 4:2:0 (Type 2)
  17. Bit depth                                : 10 bits
  18. Bits/(Pixel*Frame)                       : 0.071
  19. Stream size                              : 9.76 GiB (96%)
  20. Default                                  : Yes
  21. Forced                                   : No
  22. Color range                              : Full
  23. Color primaries                          : BT.2020
  24. Transfer characteristics                 : PQ
  25. Matrix coefficients                      : BT.2020 non-constant
  26. Mastering display color primaries        : Display P3
  27. Mastering display luminance              : min: 0.0001 cd/m2, max: 1000 cd/m2

  28. Audio
  29. ID                                       : 2
  30. Format                                   : E-AC-3
  31. Format/Info                              : Enhanced AC-3
  32. Commercial name                          : Dolby Digital Plus
  33. Codec ID                                 : A_EAC3
  34. Duration                                 : 1 h 38 min
  35. Bit rate mode                            : Constant
  36. Bit rate                                 : 640 kb/s
  37. Channel(s)                               : 6 channels
  38. Channel layout                           : L R C LFE Ls Rs
  39. Sampling rate                            : 48.0 kHz
  40. Frame rate                               : 31.250 FPS (1536 SPF)
  41. Compression mode                         : Lossy
  42. Delay relative to video                  : 26 ms
  43. Stream size                              : 450 MiB (4%)
  44. Language                                 : English
  45. Service kind                             : Complete Main
  46. Default                                  : Yes
  47. Forced                                   : No

  48. Text #1
  49. ID                                       : 3
  50. Format                                   : UTF-8
  51. Codec ID                                 : S_TEXT/UTF8
  52. Codec ID/Info                            : UTF-8 Plain Text
  53. Duration                                 : 1 h 31 min
  54. Bit rate                                 : 48 b/s
  55. Count of elements                        : 1111
  56. Stream size                              : 32.2 KiB (0%)
  57. Language                                 : English
  58. Default                                  : No
  59. Forced                                   : No

  60. Text #2
  61. ID                                       : 4
  62. Format                                   : UTF-8
  63. Codec ID                                 : S_TEXT/UTF8
  64. Codec ID/Info                            : UTF-8 Plain Text
  65. Duration                                 : 1 h 33 min
  66. Bit rate                                 : 58 b/s
  67. Count of elements                        : 1386
  68. Stream size                              : 40.4 KiB (0%)
  69. Title                                    : SDH
  70. Language                                 : English
  71. Default                                  : No
  72. Forced                                   : No
复制代码






                                       
                                       

                                       
                                       
                                       





回复

使用道具 举报

懒得打字嘛,点击右侧快捷回复 【右侧内容,后台自定义】
您需要登录后才可以回帖 登录 | 立即加入

本版积分规则

Archiver|小黑屋| 蓝光电影网 |网站地图

Copyright © 2021 Comsenz Inc. Powered by 蓝光电影网

蓝光电影网

本站内容由用户自主分享和转载自互联网,转载目的在于传递更多信息,并不代表本网赞同其观点和对其真实性负责。

如有侵权、违反国家法律政策行为,请联系我们,我们会第一时间及时清除和处理!

举报反馈邮箱:[email protected]

快速回复 返回顶部 返回列表