找回密码

蓝光电影网

查看: 132|回复: 0

[喜剧] 老处女 La.Vieille.Fille.1972.FRENCH.1080p.NF.WEBRip.DDP2.0.x264-playWEB 4.67GB

[复制链接]
蓝光币
733
发表于 2021-10-29 16:12:21 | 显示全部楼层 |阅读模式


◎译  名 老童贞/The Old Maid
◎片  名 La vieille fille
◎年  代 1972
◎产  地 法国,意大利
◎类  别 笑剧
◎语  言 德语,法语
◎上映日期 1972-01-12(法国)
◎豆瓣评分 /10 from 0 users
◎豆瓣链接 https://movie.douban.com/subject/2567535/
◎片  长 85分钟
◎导  演 让-皮埃尔·勃朗 Jean-Pierre Blanc
◎编  剧 让-皮埃尔·勃朗 Jean-Pierre Blanc
◎主  演 安妮·吉拉尔多 Annie Girardot
       菲利普·努瓦雷 Philippe Noiret
       玛尔特·克勒尔 Marthe Keller
       玛利亚·施奈德 Maria Schneider
       洛伦扎·圭列里 Lorenza Guerrieri
       让-皮埃尔·达拉斯 Jean-Pierre Darras
       迈克尔·朗斯代尔 Michael Lonsdale
       爱迪丝·斯考博 Edith Scob
       卡特琳·萨米 Catherine Samie
       朱利亚·撒瓦特瑞 Giulia Salvatori
◎标  签 柏林最好导演 | 美国电影 | 法国电影 | 金熊奖(提名) | 生活流影片 | 柏林 | 无英字 | 获奖
◎简  介


  Muriel (Annie Giradot) is a shy woman who bluffs and blusters around in order to hide her shyness and to protect her loneliness, even though she longs wistfully for a companion of some sort. She has been lonely so long that now she is an old maid and has never been wooed. In this gentle French film, Muriel gets a glimpse of romance when Gabriel (Philippe Noiret) walks into the seaside hotel she is vacationing in. His car has broken down, and he has to stay there for a few days while it is repaired. Hers is the only dinner table with room at it, and Gabriel cannot prevent himself from charming women. She is stiff with him at first, but soon they develop a friendship.
◎获奖情况
  第22届柏林国际电影节 ?(1972)
  金熊奖最好影片(提名) 让-皮埃尔·勃朗
  银熊奖最好导演 让-皮埃尔·勃朗
  1. Video
  2. ID                                       : 1
  3. Format                                   : AVC
  4. Format/Info                              : Advanced Video Codec
  5. Format profile                           : [email protected]
  6. Format settings                          : CABAC / 3 Ref Frames
  7. Format settings, CABAC                   : Yes
  8. Format settings, Reference frames        : 3 frames
  9. Codec ID                                 : V_MPEG4/ISO/AVC
  10. Duration                                 : 1 h 27 min
  11. Bit rate mode                            : Variable
  12. Bit rate                                 : 7 500 kb/s
  13. Maximum bit rate                         : 11.2 Mb/s
  14. Width                                    : 1 920 pixels
  15. Height                                   : 1 080 pixels
  16. Display aspect ratio                     : 16:9
  17. Frame rate mode                          : Constant
  18. Frame rate                               : 24.000 FPS
  19. Color space                              : YUV
  20. Chroma subsampling                       : 4:2:0
  21. Bit depth                                : 8 bits
  22. Scan type                                : Progressive
  23. Bits/(Pixel*Frame)                       : 0.151
  24. Stream size                              : 4.59 GiB (98%)
  25. Writing library                          : x264 core 148 r2724 dbe0335
  26. Encoding settings                        : cabac=1 / ref=3 / deblock=1:0:0 / analyse=0x1:0x111 / me=umh / subme=10 / psy=1 / psy_rd=1.00:0.00 / mixed_ref=1 / me_range=24 / chroma_me=1 / trellis=2 / 8x8dct=0 / cqm=0 / deadzone=21,11 / fast_pskip=1 / chroma_qp_offset=-2 / threads=8 / lookahead_threads=1 / sliced_threads=0 / nr=0 / decimate=1 / interlaced=0 / bluray_compat=0 / stitchable=1 / constrained_intra=0 / bframes=2 / b_pyramid=0 / b_adapt=2 / b_bias=0 / direct=3 / weightb=1 / open_gop=0 / weightp=2 / keyint=250 / keyint_min=24 / scenecut=0 / intra_refresh=0 / rc_lookahead=48 / rc=2pass / mbtree=1 / bitrate=7500 / ratetol=1.0 / qcomp=0.50 / qpmin=6 / qpmax=51 / qpstep=4 / cplxblur=20.0 / qblur=0.5 / vbv_maxrate=11250 / vbv_bufsize=15000 / nal_hrd=vbr / filler=0 / ip_ratio=1.40 / aq=1:1.00
  27. Default                                  : Yes
  28. Forced                                   : No
  29. Audio
  30. ID                                       : 2
  31. Format                                   : E-AC-3
  32. Format/Info                              : Enhanced AC-3
  33. Commercial name                          : Dolby Digital Plus
  34. Codec ID                                 : A_EAC3
  35. Duration                                 : 1 h 27 min
  36. Bit rate mode                            : Constant
  37. Bit rate                                 : 128 kb/s
  38. Channel(s)                               : 2 channels
  39. Channel layout                           : L R
  40. Sampling rate                            : 48.0 kHz
  41. Frame rate                               : 31.250 FPS (1536 SPF)
  42. Compression mode                         : Lossy
  43. Stream size                              : 80.3 MiB (2%)
  44. Title                                    : French
  45. Language                                 : French
  46. Service kind                             : Complete Main
  47. Default                                  : No
  48. Forced                                   : No
  49. Text #1
  50. ID                                       : 3
  51. Format                                   : UTF-8
  52. Codec ID                                 : S_TEXT/UTF8
  53. Codec ID/Info                            : UTF-8 Plain Text
  54. Duration                                 : 1 h 27 min
  55. Bit rate                                 : 28 b/s
  56. Count of elements                        : 737
  57. Stream size                              : 18.5 KiB (0%)
  58. Title                                    : English
  59. Language                                 : English
  60. Default                                  : No
  61. Forced                                   : No
  62. Text #2
  63. ID                                       : 4
  64. Format                                   : UTF-8
  65. Codec ID                                 : S_TEXT/UTF8
  66. Codec ID/Info                            : UTF-8 Plain Text
  67. Duration                                 : 1 h 27 min
  68. Bit rate                                 : 26 b/s
  69. Count of elements                        : 736
  70. Stream size                              : 17.2 KiB (0%)
  71. Title                                    : Croatian
  72. Language                                 : Croatian
  73. Default                                  : No
  74. Forced                                   : No
  75. Text #3
  76. ID                                       : 5
  77. Format                                   : UTF-8
  78. Codec ID                                 : S_TEXT/UTF8
  79. Codec ID/Info                            : UTF-8 Plain Text
  80. Duration                                 : 1 h 27 min
  81. Bit rate                                 : 28 b/s
  82. Count of elements                        : 716
  83. Stream size                              : 18.4 KiB (0%)
  84. Title                                    : Czech
  85. Language                                 : Czech
  86. Default                                  : No
  87. Forced                                   : No
  88. Text #4
  89. ID                                       : 6
  90. Format                                   : UTF-8
  91. Codec ID                                 : S_TEXT/UTF8
  92. Codec ID/Info                            : UTF-8 Plain Text
  93. Duration                                 : 1 h 27 min
  94. Bit rate                                 : 30 b/s
  95. Count of elements                        : 706
  96. Stream size                              : 19.6 KiB (0%)
  97. Title                                    : Danish
  98. Language                                 : Danish
  99. Default                                  : No
  100. Forced                                   : No
  101. Text #5
  102. ID                                       : 7
  103. Format                                   : UTF-8
  104. Codec ID                                 : S_TEXT/UTF8
  105. Codec ID/Info                            : UTF-8 Plain Text
  106. Duration                                 : 1 h 27 min
  107. Bit rate                                 : 31 b/s
  108. Count of elements                        : 731
  109. Stream size                              : 20.2 KiB (0%)
  110. Title                                    : Dutch
  111. Language                                 : Dutch
  112. Default                                  : No
  113. Forced                                   : No
  114. Text #6
  115. ID                                       : 8
  116. Format                                   : UTF-8
  117. Codec ID                                 : S_TEXT/UTF8
  118. Codec ID/Info                            : UTF-8 Plain Text
  119. Duration                                 : 1 h 27 min
  120. Bit rate                                 : 29 b/s
  121. Count of elements                        : 724
  122. Stream size                              : 19.1 KiB (0%)
  123. Title                                    : Finnish
  124. Language                                 : Finnish
  125. Default                                  : No
  126. Forced                                   : No
  127. Text #7
  128. ID                                       : 9
  129. Format                                   : UTF-8
  130. Codec ID                                 : S_TEXT/UTF8
  131. Codec ID/Info                            : UTF-8 Plain Text
  132. Duration                                 : 1 h 25 min
  133. Bit rate                                 : 40 b/s
  134. Count of elements                        : 776
  135. Stream size                              : 25.5 KiB (0%)
  136. Title                                    : French
  137. Language                                 : French
  138. Default                                  : No
  139. Forced                                   : No
  140. Text #8
  141. ID                                       : 10
  142. Format                                   : UTF-8
  143. Codec ID                                 : S_TEXT/UTF8
  144. Codec ID/Info                            : UTF-8 Plain Text
  145. Duration                                 : 1 h 27 min
  146. Bit rate                                 : 49 b/s
  147. Count of elements                        : 737
  148. Stream size                              : 31.5 KiB (0%)
  149. Title                                    : Greek
  150. Language                                 : Greek
  151. Default                                  : No
  152. Forced                                   : No
  153. Text #9
  154. ID                                       : 11
  155. Format                                   : UTF-8
  156. Codec ID                                 : S_TEXT/UTF8
  157. Codec ID/Info                            : UTF-8 Plain Text
  158. Duration                                 : 1 h 27 min
  159. Bit rate                                 : 28 b/s
  160. Count of elements                        : 737
  161. Stream size                              : 18.3 KiB (0%)
  162. Title                                    : Hungarian
  163. Language                                 : Hungarian
  164. Default                                  : No
  165. Forced                                   : No
  166. Text #10
  167. ID                                       : 12
  168. Format                                   : UTF-8
  169. Codec ID                                 : S_TEXT/UTF8
  170. Codec ID/Info                            : UTF-8 Plain Text
  171. Duration                                 : 1 h 27 min
  172. Bit rate                                 : 28 b/s
  173. Count of elements                        : 737
  174. Stream size                              : 18.3 KiB (0%)
  175. Title                                    : Norwegian Bokmal
  176. Language                                 : Norwegian Bokmal
  177. Default                                  : No
  178. Forced                                   : No
  179. Text #11
  180. ID                                       : 13
  181. Format                                   : UTF-8
  182. Codec ID                                 : S_TEXT/UTF8
  183. Codec ID/Info                            : UTF-8 Plain Text
  184. Duration                                 : 1 h 27 min
  185. Bit rate                                 : 29 b/s
  186. Count of elements                        : 735
  187. Stream size                              : 19.0 KiB (0%)
  188. Title                                    : Portuguese
  189. Language                                 : Portuguese
  190. Default                                  : No
  191. Forced                                   : No
  192. Text #12
  193. ID                                       : 14
  194. Format                                   : UTF-8
  195. Codec ID                                 : S_TEXT/UTF8
  196. Codec ID/Info                            : UTF-8 Plain Text
  197. Duration                                 : 1 h 27 min
  198. Bit rate                                 : 29 b/s
  199. Count of elements                        : 633
  200. Stream size                              : 18.6 KiB (0%)
  201. Title                                    : Romanian
  202. Language                                 : Romanian
  203. Default                                  : No
  204. Forced                                   : No
  205. Text #13
  206. ID                                       : 15
  207. Format                                   : UTF-8
  208. Codec ID                                 : S_TEXT/UTF8
  209. Codec ID/Info                            : UTF-8 Plain Text
  210. Duration                                 : 1 h 27 min
  211. Bit rate                                 : 47 b/s
  212. Count of elements                        : 738
  213. Stream size                              : 30.5 KiB (0%)
  214. Title                                    : Russian
  215. Language                                 : Russian
  216. Default                                  : No
  217. Forced                                   : No
  218. Text #14
  219. ID                                       : 16
  220. Format                                   : UTF-8
  221. Codec ID                                 : S_TEXT/UTF8
  222. Codec ID/Info                            : UTF-8 Plain Text
  223. Duration                                 : 1 h 27 min
  224. Bit rate                                 : 30 b/s
  225. Count of elements                        : 738
  226. Stream size                              : 19.3 KiB (0%)
  227. Title                                    : Swedish
  228. Language                                 : Swedish
  229. Default                                  : No
  230. Forced                                   : No
复制代码







                                       
                                       

                                       
                                       
                                       




回复

使用道具 举报

懒得打字嘛,点击右侧快捷回复 【右侧内容,后台自定义】
您需要登录后才可以回帖 登录 | 立即加入

本版积分规则

Archiver|小黑屋| 蓝光电影网 |网站地图

Copyright © 2021 Comsenz Inc. Powered by 蓝光电影网

蓝光电影网

本站内容由用户自主分享和转载自互联网,转载目的在于传递更多信息,并不代表本网赞同其观点和对其真实性负责。

如有侵权、违反国家法律政策行为,请联系我们,我们会第一时间及时清除和处理!

举报反馈邮箱:[email protected]

快速回复 返回顶部 返回列表