找回密码

蓝光电影网

查看: 489|回复: 3

[10bit.HDR] 悍女 Brimstone.2016.2160p.UHD.BluRay.x265.10bit.HDR.DTS-HD.MA.5.1-SWTYBLZ 38.41GB

[复制链接]
蓝光币
682
发表于 2021-10-29 17:29:10 | 显示全部楼层 |阅读模式


◎译  名 悍女/Koolhoven's Brimstone/炼狱之苦/石女/走过炼狱的女人(台)
◎片  名 Brimstone
◎年  代 2016
◎产  地 荷兰,法国,德国,比利时,瑞典,英国
◎类  别 悬疑 / 惊悚 / 西部
◎语  言 英语,荷兰语
◎上映日期 2016-09-03(威尼斯电影节) / 2017-01-12(荷兰)
◎豆瓣评分 6.8/10 from 3153 users
◎豆瓣链接 https://movie.douban.com/subject/6874166/
◎片  长 148分钟
◎导  演 马丁·寇霍文 Martin Koolhoven
◎编  剧 马丁·寇霍文 Martin Koolhoven
◎主  演 达科塔·范宁 Dakota Fanning
       盖·皮尔斯 Guy Pearce
       基特·哈灵顿 Kit Harington
       卡里斯·范·侯登 Carice van Houten
       保罗·安德森 Paul Anderson
       艾米莉亚·琼斯 Emilia Jones
       艾薇·乔治 Ivy George
       薇拉·维塔利 Vera Vitali
       威廉·休斯顿 William Houston
       卡拉·朱里 Carla Juri
       杰克·罗思 Jack Roth
       娜奥米·巴特里克 Naomi Battrick
       艾德里安·斯帕克斯 Adrian Sparks
       多里斯·洛夫 Dorian Lough
       杰克·霍林顿 Jack Hollington
       Alexandra Guelff Alexandra Guelff
       比尔·坦拉蒂 Bill Tangradi
       泰格·格南德特 Tygo Gernandt
◎标  签 西部 | 犯罪 | 惊悚 | 悬疑 | 荷兰 | 宗教 | 剧情 | 2016
◎简  介


  故事发生在十七世纪的美国西部小镇中,哑女丽姿(达科塔·范宁 Dakota Fanning 饰)和丈夫伊莱(威廉·休斯顿 William Houston 饰)带着他们的孩子们生活在那边。虽然日子清贫,而丽姿又天生得了残疾,可是两人都对今朝稳定的生活心满足足。
  
  一天,镇上来了一位神父(盖·皮尔斯 Guy Pearce 饰),在见到神父第一面时,丽姿就晓得,她的幸运生活将一去不复返,神父和丽姿到底有着怎样的过节以致于他要如此无情的迫害她和她的家人呢?丽姿是一位助产士,在一次手术中,孕妇出现了生命危险,在母亲和孩子只能保一个的情况下,丽姿挑选了庇护母亲,却不知,这挑选亦将她推向了万劫不复的深渊。
◎获奖情况
  第73届威尼斯电影节 ?(2016)
  主比赛单元金狮奖(提名) 马丁·寇霍文
  
  第30届欧洲电影奖 ?(2017)
  最好打扮设想

  1. Video
  2. ID : 1
  3. Format : HEVC
  4. Format/Info : High Efficiency Video Coding
  5. Format profile : Main [email protected]@High
  6. HDR format : SMPTE ST 2086, HDR10 compatible
  7. Codec ID : V_MPEGH/ISO/HEVC
  8. Duration : 2 h 28 min
  9. Bit rate : 33.2 Mb/s
  10. Width : 3 840 pixels
  11. Height : 1 600 pixels
  12. Display aspect ratio : 2.40:1
  13. Frame rate mode : Constant
  14. Frame rate : 23.976 (24000/1001) FPS
  15. Color space : YUV
  16. Chroma subsampling : 4:2:0 (Type 2)
  17. Bit depth : 10 bits
  18. Bits/(Pixel*Frame) : 0.225
  19. Stream size : 34.5 GiB (90%)
  20. Writing library : x265 3.0_Au+10-74a8672ea4f7:[Windows][GCC 8.2.1][64 bit] 10bit
  21. Encoding settings : cpuid=1111039 / frame-threads=6 / numa-pools=40 / wpp / no-pmode / no-pme / no-psnr / no-ssim / log-level=2 / input-csp=1 / input-res=3840x1600 / interlace=0 / total-frames=0 / level-idc=51 / high-tier=1 / uhd-bd=0 / ref=3 / no-allow-non-conformance / repeat-headers / annexb / aud / hrd / info / hash=0 / no-temporal-layers / no-open-gop / min-keyint=1 / keyint=24 / gop-lookahead=0 / bframes=4 / b-adapt=2 / b-pyramid / bframe-bias=0 / rc-lookahead=25 / lookahead-slices=4 / scenecut=40 / radl=0 / no-splice / no-intra-refresh / ctu=64 / min-cu-size=8 / no-rect / no-amp / max-tu-size=32 / tu-inter-depth=1 / tu-intra-depth=1 / limit-tu=0 / rdoq-level=0 / dynamic-rd=0.00 / no-ssim-rd / signhide / no-tskip / nr-intra=0 / nr-inter=0 / no-constrained-intra / strong-intra-smoothing / max-merge=2 / limit-refs=3 / no-limit-modes / me=1 / subme=2 / merange=57 / temporal-mvp / weightp / no-weightb / no-analyze-src-pics / deblock=0:0 / no-sao / no-sao-non-deblock / rd=3 / no-early-skip / rskip / no-fast-intra / no-tskip-fast / no-cu-lossless / no-b-intra / no-splitrd-skip / rdpenalty=0 / psy-rd=2.00 / psy-rdoq=0.00 / no-rd-refine / no-lossless / cbqpoffs=0 / crqpoffs=0 / rc=crf / crf=16.0 / qcomp=0.60 / qpstep=4 / stats-write=0 / stats-read=0 / vbv-maxrate=160000 / vbv-bufsize=160000 / vbv-init=0.9 / crf-max=0.0 / crf-min=0.0 / ipratio=1.40 / pbratio=1.30 / aq-mode=1 / aq-strength=1.00 / cutree / zone-count=0 / no-strict-cbr / qg-size=32 / no-rc-grain / qpmax=69 / qpmin=0 / no-const-vbv / sar=1 / overscan=0 / videoformat=5 / range=0 / colorprim=9 / transfer=16 / colormatrix=9 / chromaloc=1 / chromaloc-top=2 / chromaloc-bottom=2 / display-window=0 / master-display=G(8500,39850)B(6550,2300)R(35400,14600)WP(15635,16450)L(10000000,01) / max-cll=1000,400 / min-luma=0 / max-luma=1023 / log2-max-poc-lsb=8 / vui-timing-info / vui-hrd-info / slices=1 / opt-qp-pps / opt-ref-list-length-pps / no-multi-pass-opt-rps / scenecut-bias=0.05 / no-opt-cu-delta-qp / no-aq-motion / hdr / hdr-opt / no-dhdr10-opt / no-idr-recovery-sei / analysis-reuse-level=5 / scale-factor=0 / refine-intra=0 / refine-inter=0 / refine-mv=0 / refine-ctu-distortion=0 / no-limit-sao / ctu-info=0 / no-lowpass-dct / refine-analysis-type=0 / copy-pic=1 / max-ausize-factor=1.0 / no-dynamic-refine / no-single-sei / no-hevc-aq / no-svt / qp-adaptation-range=1.00
  22. Default : Yes
  23. Forced : No
  24. Color range : Limited
  25. Color primaries : BT.2020
  26. Transfer characteristics : PQ
  27. Matrix coefficients : BT.2020 non-constant
  28. Mastering display color primaries : BT.2020
  29. Mastering display luminance : min: 0.0001 cd/m2, max: 1000 cd/m2
  30. Maximum Content Light Level : 1000 cd/m2
  31. Maximum Frame-Average Light Level : 400 cd/m2

  32. Audio #1
  33. ID : 2
  34. ID in the original source medium : 4353 (0x1101)
  35. Format : DTS XLL
  36. Format/Info : Digital Theater Systems
  37. Commercial name : DTS-HD Master Audio
  38. Codec ID : A_DTS
  39. Duration : 2 h 28 min
  40. Bit rate mode : Variable
  41. Bit rate : 3 004 kb/s
  42. Channel(s) : 6 channels
  43. Channel layout : C L R Ls Rs LFE
  44. Sampling rate : 48.0 kHz
  45. Frame rate : 93.750 FPS (512 SPF)
  46. Bit depth : 24 bits
  47. Compression mode : Lossless
  48. Stream size : 3.12 GiB (8%)
  49. Title : DTS-HD MA 5.1
  50. Language : English
  51. Default : Yes
  52. Forced : No
  53. Original source medium : Blu-ray

  54. Audio #2
  55. ID : 3
  56. Format : AC-3
  57. Format/Info : Audio Coding 3
  58. Commercial name : Dolby Digital
  59. Codec ID : A_AC3
  60. Duration : 2 h 28 min
  61. Bit rate mode : Constant
  62. Bit rate : 640 kb/s
  63. Channel(s) : 6 channels
  64. Channel layout : L R C LFE Ls Rs
  65. Sampling rate : 48.0 kHz
  66. Frame rate : 31.250 FPS (1536 SPF)
  67. Compression mode : Lossy
  68. Stream size : 680 MiB (2%)
  69. Title : DD 5.1
  70. Language : English
  71. Service kind : Complete Main
  72. Default : No
  73. Forced : No

  74. Text #1
  75. ID : 4
  76. Format : UTF-8
  77. Codec ID : S_TEXT/UTF8
  78. Codec ID/Info : UTF-8 Plain Text
  79. Duration : 2 h 0 min
  80. Bit rate : 0 b/s
  81. Count of elements : 30
  82. Stream size : 809 Bytes (0%)
  83. Title : FORCED
  84. Language : English
  85. Default : No
  86. Forced : Yes

  87. Text #2
  88. ID : 5
  89. Format : UTF-8
  90. Codec ID : S_TEXT/UTF8
  91. Codec ID/Info : UTF-8 Plain Text
  92. Duration : 2 h 18 min
  93. Bit rate : 27 b/s
  94. Count of elements : 849
  95. Stream size : 28.1 KiB (0%)
  96. Language : English
  97. Default : Yes
  98. Forced : No

  99. Text #3
  100. ID : 6
  101. ID in the original source medium : 4768 (0x12A0)
  102. Format : PGS
  103. Muxing mode : zlib
  104. Codec ID : S_HDMV/PGS
  105. Codec ID/Info : Picture based subtitle format used on BDs/HD-DVDs
  106. Duration : 2 h 18 min
  107. Bit rate : 19.0 kb/s
  108. Count of elements : 2233
  109. Stream size : 18.9 MiB (0%)
  110. Language : German
  111. Default : No
  112. Forced : No
  113. Original source medium : Blu-ray

  114. Menu
  115. 00:00:00.000 : en:Chapter 01
  116. 00:02:01.121 : en:Chapter 02
  117. 00:12:08.436 : en:Chapter 03
  118. 00:24:12.868 : en:Chapter 04
  119. 00:32:38.623 : en:Chapter 05
  120. 00:42:40.474 : en:Chapter 06
  121. 00:56:03.568 : en:Chapter 07
  122. 01:09:09.103 : en:Chapter 08
  123. 01:17:12.085 : en:Chapter 09
  124. 01:24:54.255 : en:Chapter 10
  125. 01:37:53.993 : en:Chapter 11
  126. 01:50:46.723 : en:Chapter 12
  127. 01:56:09.587 : en:Chapter 13
  128. 02:03:23.604 : en:Chapter 14
  129. 02:14:08.957 : en:Chapter 15
  130. 02:20:12.278 : en:Chapter 16
复制代码











                                       
                                       

                                       
                                       
                                       




回复

使用道具 举报

蓝光币
100
发表于 2021-10-29 18:17:58 | 显示全部楼层

这东西我收了!谢谢楼主!蓝光电影网真好!
回复 支持 反对

使用道具 举报

蓝光币
120
发表于 2021-10-29 20:09:46 | 显示全部楼层
非常好的。
回复

使用道具 举报

蓝光币
1455
发表于 2021-10-30 17:39:36 | 显示全部楼层


这东西我收了!谢谢楼主!蓝光电影网真好!
回复 支持 反对

使用道具 举报

懒得打字嘛,点击右侧快捷回复 【右侧内容,后台自定义】
您需要登录后才可以回帖 登录 | 立即加入

本版积分规则

Archiver|小黑屋| 蓝光电影网 |网站地图

Copyright © 2021 Comsenz Inc. Powered by 蓝光电影网

蓝光电影网

本站内容由用户自主分享和转载自互联网,转载目的在于传递更多信息,并不代表本网赞同其观点和对其真实性负责。

如有侵权、违反国家法律政策行为,请联系我们,我们会第一时间及时清除和处理!

举报反馈邮箱:[email protected]

快速回复 返回顶部 返回列表