找回密码

蓝光电影网

查看: 526|回复: 0

[2160p-WEB] 蛇首 Snakehead.2021.2160p.WEB-DL.x265.10bit.SDR.DD5.1-NOGRP 8.42GB

[复制链接]
蓝光币
730
发表于 2021-10-29 17:19:32 | 显示全部楼层 |阅读模式


◎译  名 蛇首
◎片  名 Snakehead
◎年  代 2021
◎产  地 美国
◎类  别 剧情 / 行动 / 惊悚 / 犯罪
◎语  言 英语
◎上映日期 2021-04-01(圣巴巴拉国际电影节) / 2021-10-29(美国)
◎豆瓣评分 /10 from 0 users
◎豆瓣链接 https://movie.douban.com/subject/35545516/
◎片  长 89分钟
◎导  演 梁伊丹 Evan Leong
◎编  剧 梁伊丹 Evan Leong
◎主  演 姜成镐 Sung Kang
       德文·迪普 Devon Diep
       西莉亚·奥 Celia Au
       张舒雅 Shuya Chang
◎标  签 多伦多电影节 | 2021 | 犯罪 | 美国电影 | 美国 | 移民 | 种族 | 电影
◎简  介


  A Chinese immigrant get caught up in an international crime ring of human smuggling while attempting to make a better life for her family.
  1. Video
  2. ID                                       : 1
  3. Format                                   : HEVC
  4. Format/Info                              : High Efficiency Video Coding
  5. Format profile                           : Main [email protected]@High
  6. Codec ID                                 : V_MPEGH/ISO/HEVC
  7. Duration                                 : 1 h 36 min
  8. Bit rate                                 : 12.1 Mb/s
  9. Width                                    : 3 836 pixels
  10. Height                                   : 1 592 pixels
  11. Display aspect ratio                     : 2.40:1
  12. Frame rate mode                          : Constant
  13. Frame rate                               : 23.976 FPS
  14. Color space                              : YUV
  15. Chroma subsampling                       : 4:2:0
  16. Bit depth                                : 10 bits
  17. Bits/(Pixel*Frame)                       : 0.082
  18. Stream size                              : 8.16 GiB (97%)
  19. Default                                  : Yes
  20. Forced                                   : No
  21. Color range                              : Limited
  22. Color primaries                          : BT.709
  23. Transfer characteristics                 : BT.709
  24. Matrix coefficients                      : BT.709

  25. Audio
  26. ID                                       : 2
  27. Format                                   : AC-3
  28. Format/Info                              : Audio Coding 3
  29. Commercial name                          : Dolby Digital
  30. Codec ID                                 : A_AC3
  31. Duration                                 : 1 h 36 min
  32. Bit rate mode                            : Constant
  33. Bit rate                                 : 384 kb/s
  34. Channel(s)                               : 6 channels
  35. Channel layout                           : L R C LFE Ls Rs
  36. Sampling rate                            : 48.0 kHz
  37. Frame rate                               : 31.250 FPS (1536 SPF)
  38. Compression mode                         : Lossy
  39. Stream size                              : 266 MiB (3%)
  40. Title                                    : English
  41. Language                                 : English
  42. Service kind                             : Complete Main
  43. Default                                  : No
  44. Forced                                   : No

  45. Text #1
  46. ID                                       : 3
  47. Format                                   : UTF-8
  48. Codec ID                                 : S_TEXT/UTF8
  49. Codec ID/Info                            : UTF-8 Plain Text
  50. Duration                                 : 1 h 27 min
  51. Bit rate                                 : 31 b/s
  52. Count of elements                        : 775
  53. Stream size                              : 20.3 KiB (0%)
  54. Language                                 : English
  55. Default                                  : Yes
  56. Forced                                   : No

  57. Text #2
  58. ID                                       : 4
  59. Format                                   : UTF-8
  60. Codec ID                                 : S_TEXT/UTF8
  61. Codec ID/Info                            : UTF-8 Plain Text
  62. Duration                                 : 1 h 1 min
  63. Bit rate                                 : 4 b/s
  64. Count of elements                        : 72
  65. Stream size                              : 2.02 KiB (0%)
  66. Title                                    : English [Forced]
  67. Language                                 : English
  68. Default                                  : No
  69. Forced                                   : Yes
复制代码





                                       
                                       

                                       
                                       
                                       




回复

使用道具 举报

懒得打字嘛,点击右侧快捷回复 【右侧内容,后台自定义】
您需要登录后才可以回帖 登录 | 立即加入

本版积分规则

Archiver|小黑屋| 蓝光电影网 |网站地图

Copyright © 2021 Comsenz Inc. Powered by 蓝光电影网

蓝光电影网

本站内容由用户自主分享和转载自互联网,转载目的在于传递更多信息,并不代表本网赞同其观点和对其真实性负责。

如有侵权、违反国家法律政策行为,请联系我们,我们会第一时间及时清除和处理!

举报反馈邮箱:[email protected]

快速回复 返回顶部 返回列表