找回密码

蓝光电影网

查看: 432|回复: 4

[8bit.SDR] 黑夜传说/决战异世界 Underworld.2003.UNRATED.2160p.BluRay.x264.8bit.SDR.DTS-HD.MA.TrueHD.7.1.Atmos-SWTYBLZ 57.11GB

[复制链接]
蓝光币
730
发表于 2021-10-29 23:37:41 | 显示全部楼层 |阅读模式


◎译  名 黑夜传闻/决战异天下(台)/妖夜寻狼(港)
◎片  名 Underworld
◎年  代 2003
◎产  地 英国,德国,匈牙利,美国
◎类  别 行动 / 惊悚 / 奇异
◎语  言 英语
◎上映日期 2003-09-08(多伦多电影节) / 2003-09-19(美国)
◎豆瓣评分 7.5/10 from 88546 users
◎豆瓣链接 https://movie.douban.com/subject/1307527/
◎片  长 121分钟
◎导  演 伦·怀斯曼 Len Wiseman
◎编  剧 凯文·格雷维奥斯 Kevin Grevioux / 伦·怀斯曼 Len Wiseman / Danny McBride Danny McBride
◎主  演 凯特·贝金赛尔 Kate Beckinsale
       斯科特·斯比德曼 Scott Speedman
       麦克·辛 Michael Sheen
       山恩·布罗利 Shane Brolly
       比尔·奈伊 Bill Nighy
       艾尔文·莱德 Erwin Leder
       索菲娅·迈尔斯 Sophia Myles
       罗比·基 Robbie Gee
       温特沃斯·米勒 Wentworth Miller
       凯文·格雷维奥斯 Kevin Grevioux
       兹塔·格罗格 Zita G?r?g
       汉克·阿莫斯 Hank Amos
       理查德·赛特伦 Richard Cetrone
       Mike Mukatis Mike Mukatis
       Sándor Boros Sándor Boros
       安德烈·巴顿 Andreas Patton
       Danny McBride Danny McBride
       Jázmin Dammak Jázmin Dammak
       Ildikó Kovács Ildikó Kovács
       Ekkehardt Belle Ekkehardt Belle
       Reinhard Brock Reinhard Brock
       Pascal Breuer Pascal Breuer
       布莱恩·斯蒂尔 Brian Steele
       Kurt Carley Kurt Carley
       Zoltan Papp Zoltan Papp
◎标  签 吸血鬼 | 魔幻 | 美国 | 行动 | 科幻 | 奇异 | 美国电影 | 惊悚
◎简  介


  地球上一向存在着一个黑暗的地来天下。那边,两大种族――吸血鬼和狼人――在斗得不共戴天,每一方都以消灭对方种族为终极方针。
  
  一次,吸血鬼族的“月神”西丽妮(凯特?贝金赛尔 Kate Beckinsale 饰)在追杀几个落败的狼人时发现,狼人正在谋害绑架人类的一位医生麦克尔 (斯科特?斯比德曼 Scott Speedman 饰)。心知狼人必有所图,西丽妮单独前往狼窝查探。不意中了狼人的匿伏,身负重伤之际幸得麦克尔相救。在麦克尔送西丽妮回吸血鬼营地的途中,他意外被一只狼人咬伤了,由此揭开了麦克尔的身世之谜和狼人的诡计……
  1. Video
  2. ID                                       : 1
  3. Format                                   : AVC
  4. Format/Info                              : Advanced Video Codec
  5. Format profile                           : [email protected]
  6. Format settings                          : CABAC / 5 Ref Frames
  7. Format settings, CABAC                   : Yes
  8. Format settings, Reference frames        : 5 frames
  9. Codec ID                                 : V_MPEG4/ISO/AVC
  10. Duration                                 : 2 h 13 min
  11. Bit rate                                 : 50.8 Mb/s
  12. Width                                    : 3 840 pixels
  13. Height                                   : 1 606 pixels
  14. Display aspect ratio                     : 2.40:1
  15. Frame rate mode                          : Constant
  16. Frame rate                               : 23.976 (24000/1001/189150) FPS
  17. Color space                              : YUV
  18. Chroma subsampling                       : 4:2:0
  19. Bit depth                                : 8 bits
  20. Scan type                                : Progressive
  21. Bits/(Pixel*Frame)                       : 0.343
  22. Stream size                              : 47.4 GiB (83%)
  23. Writing library                          : x264 core 157 r2935 545de2f
  24. Encoding settings                        : cabac=1 / ref=5 / deblock=1:-1:-1 / analyse=0x3:0x113 / me=umh / subme=10 / psy=1 / psy_rd=1.00:0.15 / mixed_ref=1 / me_range=48 / chroma_me=1 / trellis=2 / 8x8dct=1 / cqm=0 / deadzone=21,11 / fast_pskip=1 / chroma_qp_offset=-3 / threads=48 / lookahead_threads=4 / sliced_threads=0 / nr=0 / decimate=0 / interlaced=0 / bluray_compat=0 / constrained_intra=0 / bframes=3 / b_pyramid=2 / b_adapt=2 / b_bias=0 / direct=3 / weightb=1 / open_gop=0 / weightp=2 / keyint=250 / keyint_min=23 / scenecut=40 / intra_refresh=0 / rc_lookahead=50 / rc=crf / mbtree=1 / crf=18.0 / qcomp=0.60 / qpmin=0 / qpmax=69 / qpstep=4 / ip_ratio=1.40 / aq=1:1.00
  25. Default                                  : Yes
  26. Forced                                   : No

  27. Audio #1
  28. ID                                       : 2
  29. ID in the original source medium         : 4356 (0x1104)
  30. Format                                   : MLP FBA 16-ch
  31. Format/Info                              : Meridian Lossless Packing FBA with 16-channel presentation
  32. Commercial name                          : Dolby TrueHD with Dolby Atmos
  33. Codec ID                                 : A_TRUEHD
  34. Duration                                 : 2 h 13 min
  35. Bit rate mode                            : Variable
  36. Bit rate                                 : 4 932 kb/s
  37. Maximum bit rate                         : 8 271 kb/s
  38. Channel(s)                               : 8 channels
  39. Channel layout                           : L R C LFE Ls Rs Lb Rb
  40. Sampling rate                            : 48.0 kHz
  41. Frame rate                               : 1 200.000 FPS (40 SPF)
  42. Bit depth                                : 24 bits
  43. Compression mode                         : Lossless
  44. Stream size                              : 4.60 GiB (8%)
  45. Title                                    : TrueHD 7.1 Atmos
  46. Language                                 : English
  47. Default                                  : Yes
  48. Forced                                   : No
  49. Original source medium                   : Blu-ray
  50. Number of dynamic objects                : 11
  51. Bed channel count                        : 1 channel
  52. Bed channel configuration                : LFE

  53. Audio #2
  54. ID                                       : 3
  55. Format                                   : DTS XLL
  56. Format/Info                              : Digital Theater Systems
  57. Commercial name                          : DTS-HD Master Audio
  58. Codec ID                                 : A_DTS
  59. Duration                                 : 2 h 13 min
  60. Bit rate mode                            : Variable
  61. Bit rate                                 : 4 420 kb/s
  62. Channel(s)                               : 8 channels
  63. Channel layout                           : C L R LFE Lb Rb Lss Rss
  64. Sampling rate                            : 48.0 kHz
  65. Frame rate                               : 93.750 FPS (512 SPF)
  66. Bit depth                                : 24 bits
  67. Compression mode                         : Lossless
  68. Stream size                              : 4.13 GiB (7%)
  69. Title                                    : DTS-HD MA 7.1
  70. Language                                 : English
  71. Default                                  : No
  72. Forced                                   : No

  73. Audio #3
  74. ID                                       : 4
  75. ID in the original source medium         : 4356 (0x1104)
  76. Format                                   : AC-3
  77. Format/Info                              : Audio Coding 3
  78. Commercial name                          : Dolby Digital
  79. Codec ID                                 : A_AC3
  80. Duration                                 : 2 h 13 min
  81. Bit rate mode                            : Constant
  82. Bit rate                                 : 640 kb/s
  83. Channel(s)                               : 6 channels
  84. Channel layout                           : L R C LFE Ls Rs
  85. Sampling rate                            : 48.0 kHz
  86. Frame rate                               : 31.250 FPS (1536 SPF)
  87. Compression mode                         : Lossy
  88. Stream size                              : 612 MiB (1%)
  89. Title                                    : DD 5.1
  90. Language                                 : English
  91. Service kind                             : Complete Main
  92. Default                                  : No
  93. Forced                                   : No
  94. Original source medium                   : Blu-ray

  95. Text #1
  96. ID                                       : 5
  97. Format                                   : UTF-8
  98. Codec ID                                 : S_TEXT/UTF8
  99. Codec ID/Info                            : UTF-8 Plain Text
  100. Duration                                 : 2 h 12 min
  101. Bit rate                                 : 27 b/s
  102. Count of elements                        : 777
  103. Stream size                              : 26.6 KiB (0%)
  104. Title                                    : SRT
  105. Language                                 : English
  106. Default                                  : Yes
  107. Forced                                   : No

  108. Text #2
  109. ID                                       : 6
  110. ID in the original source medium         : 4768 (0x12A0)
  111. Format                                   : PGS
  112. Muxing mode                              : zlib
  113. Codec ID                                 : S_HDMV/PGS
  114. Codec ID/Info                            : Picture based subtitle format used on BDs/HD-DVDs
  115. Duration                                 : 2 h 12 min
  116. Bit rate                                 : 19.0 kb/s
  117. Count of elements                        : 2086
  118. Stream size                              : 18.1 MiB (0%)
  119. Title                                    : SDH
  120. Language                                 : English
  121. Default                                  : No
  122. Forced                                   : No
  123. Original source medium                   : Blu-ray

  124. Text #3
  125. ID                                       : 7
  126. ID in the original source medium         : 4769 (0x12A1)
  127. Format                                   : PGS
  128. Muxing mode                              : zlib
  129. Codec ID                                 : S_HDMV/PGS
  130. Codec ID/Info                            : Picture based subtitle format used on BDs/HD-DVDs
  131. Duration                                 : 2 h 4 min
  132. Bit rate                                 : 15.5 kb/s
  133. Count of elements                        : 1428
  134. Stream size                              : 13.8 MiB (0%)
  135. Language                                 : English
  136. Default                                  : No
  137. Forced                                   : No
  138. Original source medium                   : Blu-ray

  139. Text #4
  140. ID                                       : 8
  141. ID in the original source medium         : 4772 (0x12A4)
  142. Format                                   : PGS
  143. Muxing mode                              : zlib
  144. Codec ID                                 : S_HDMV/PGS
  145. Codec ID/Info                            : Picture based subtitle format used on BDs/HD-DVDs
  146. Duration                                 : 2 h 12 min
  147. Bit rate                                 : 13.5 kb/s
  148. Count of elements                        : 1410
  149. Stream size                              : 12.8 MiB (0%)
  150. Language                                 : French
  151. Default                                  : No
  152. Forced                                   : No
  153. Original source medium                   : Blu-ray

  154. Text #5
  155. ID                                       : 9
  156. ID in the original source medium         : 4773 (0x12A5)
  157. Format                                   : PGS
  158. Muxing mode                              : zlib
  159. Codec ID                                 : S_HDMV/PGS
  160. Codec ID/Info                            : Picture based subtitle format used on BDs/HD-DVDs
  161. Duration                                 : 2 h 12 min
  162. Bit rate                                 : 15.4 kb/s
  163. Count of elements                        : 1448
  164. Stream size                              : 14.6 MiB (0%)
  165. Language                                 : Italian
  166. Default                                  : No
  167. Forced                                   : No
  168. Original source medium                   : Blu-ray

  169. Menu
  170. 00:00:00.000                             : en:Chapter 01
  171. 00:09:22.311                             : en:Chapter 02
  172. 00:18:48.001                             : en:Chapter 03
  173. 00:24:29.551                             : en:Chapter 04
  174. 00:34:05.877                             : en:Chapter 05
  175. 00:40:30.136                             : en:Chapter 06
  176. 00:47:24.216                             : en:Chapter 07
  177. 00:58:32.634                             : en:Chapter 08
  178. 01:04:59.312                             : en:Chapter 09
  179. 01:12:03.485                             : en:Chapter 10
  180. 01:18:21.530                             : en:Chapter 11
  181. 01:24:56.257                             : en:Chapter 12
  182. 01:32:42.640                             : en:Chapter 13
  183. 01:42:44.449                             : en:Chapter 14
  184. 01:51:41.986                             : en:Chapter 15
  185. 02:03:44.291                             : en:Chapter 16
复制代码






                                       
                                       

                                       
                                       
                                       





回复

使用道具 举报

蓝光币
43
发表于 2021-10-30 09:42:54 | 显示全部楼层
楼主发贴辛苦了,谢谢楼主分享!我觉得蓝光电影网是注册对了!
回复 支持 反对

使用道具 举报

蓝光币
1305
发表于 2021-10-30 11:10:46 | 显示全部楼层
楼主发贴辛苦了,谢谢楼主分享!我觉得蓝光电影网是注册对了!
回复 支持 反对

使用道具 举报

蓝光币
140
发表于 2021-10-30 21:57:17 | 显示全部楼层
楼主发贴辛苦了,谢谢楼主分享!我觉得蓝光电影网是注册对了!
回复 支持 反对

使用道具 举报

蓝光币
2
发表于 2021-12-10 21:45:21 | 显示全部楼层
我为什么下载不了啊,郁闷死了!!!
回复 支持 反对

使用道具 举报

懒得打字嘛,点击右侧快捷回复 【右侧内容,后台自定义】
您需要登录后才可以回帖 登录 | 立即加入

本版积分规则

Archiver|小黑屋| 蓝光电影网 |网站地图

Copyright © 2021 Comsenz Inc. Powered by 蓝光电影网

蓝光电影网

本站内容由用户自主分享和转载自互联网,转载目的在于传递更多信息,并不代表本网赞同其观点和对其真实性负责。

如有侵权、违反国家法律政策行为,请联系我们,我们会第一时间及时清除和处理!

举报反馈邮箱:[email protected]

快速回复 返回顶部 返回列表