找回密码

蓝光电影网

查看: 668|回复: 4

[10bit.SDR] 黑夜传说3:狼族崛起/决战异世界前传:鬼哭狼嚎 Underworld.Rise.of.the.Lycans.2009.2160p.BluRay.x265.10bit.SDR.DTS-HD.MA.TrueHD.7.1.Atmos-SWTYBLZ 33.99GB

[复制链接]
蓝光币
733
发表于 2021-10-30 11:48:25 | 显示全部楼层 |阅读模式


◎译  名 黑夜传闻3:狼族突起/决战异天下前传:鬼哭狼嚎(台)/妖夜寻狼前传之狼神诞生/妖夜寻狼前传之狼神诞生(港)/黑夜传闻前传:狼族复兴
◎片  名 Underworld: Rise of the Lycans
◎年  代 2009
◎产  地 美国,新西兰
◎类  别 行动 / 惊悚 / 奇异
◎语  言 英语
◎上映日期 2009-01-23(美国)
◎豆瓣评分 6.8/10 from 45280 users
◎豆瓣链接 https://movie.douban.com/subject/2132941/
◎片  长 92 分钟
◎导  演 帕特里克·塔特普洛斯 Patrick Tatopoulos
◎编  剧 丹尼·麦克布莱德 Danny McBride / 伦·怀斯曼 Len Wiseman / 凯文·格雷维奥斯 Kevin Grevioux / 德克·布莱克曼 Dirk Blackman / 霍华德·麦凯恩 Howard McCain
◎主  演 麦克·辛 Michael Sheen
       比尔·奈伊 Bill Nighy
       罗娜·迈特拉 Rhona Mitra
       斯蒂文·麦金托什 Steven Mackintosh
       凯文·格雷维奥斯 Kevin Grevioux
       伊丽莎白·霍桑 Elizabeth Hawthorne
       蒂莫西拉比 Timothy Raby
       贾里德·特纳 Jared Turner
       Kurt Carley Kurt Carley
       坦尼亚·诺兰 Tania Nolan
       克雷格·帕克 Craig Parker
       山恩·布罗利 Shane Brolly
       马克·米钦森 Mark Mitchinson
◎标  签 吸血鬼 | 魔幻 | 美国 | 狼人 | 行动 | 黑夜传闻 | 美国电影 | 2009
◎简  介


  悠远的黑暗世纪,柯文诺斯的子孙一分为二。血族在维多(比利·奈伊 Bill Nighy 饰)的带领下独行全国,强大的吸血兵团压制极具沾染性且没法进化成人的残暴狼族。直到某天,一个奇异的生命诞生,改变了这两个家属的命运。一只母狼诞下有着人类表面的狼人路西安(麦克·辛 Michael Sheen 饰),维多窥见狼人身材内的强大气力,因而对其大量滋生,并将狼人纳为办事血族的仆从。仆从的磨难永无终结,而在这一进程中路西安还冒全国之大不韪与维多的女儿桑雅(罗娜·迈特拉 Rhona Mitra 饰)偷偷相恋。
  
  渴望自在的路西安终极想法解开维多对自己的禁锢,狼人与血族延续数百年的战争亦由此拉开序幕……
  1. Video
  2. ID                                       : 1
  3. Format                                   : HEVC
  4. Format/Info                              : High Efficiency Video Coding
  5. Format profile                           : Main [email protected]@High
  6. Codec ID                                 : V_MPEGH/ISO/HEVC
  7. Duration                                 : 1 h 32 min
  8. Bit rate                                 : 42.6 Mb/s
  9. Width                                    : 3 840 pixels
  10. Height                                   : 1 606 pixels
  11. Display aspect ratio                     : 2.40:1
  12. Frame rate mode                          : Constant
  13. Frame rate                               : 23.976 (24000/1001/189150) FPS
  14. Color space                              : YUV
  15. Chroma subsampling                       : 4:2:0
  16. Bit depth                                : 10 bits
  17. Bits/(Pixel*Frame)                       : 0.288
  18. Stream size                              : 27.5 GiB (81%)
  19. Writing library                          : x265 3.0ed72af837053:[Windows][GCC 8.2.0][64 bit] 10bit
  20. Encoding settings                        : cpuid=1111039 / frame-threads=6 / numa-pools=40 / wpp / no-pmode / no-pme / no-psnr / no-ssim / log-level=2 / input-csp=1 / input-res=3840x1606 / interlace=0 / total-frames=133080 / level-idc=51 / high-tier=1 / uhd-bd=0 / ref=3 / no-allow-non-conformance / repeat-headers / annexb / aud / hrd / info / hash=0 / no-temporal-layers / no-open-gop / min-keyint=1 / keyint=24 / gop-lookahead=0 / bframes=4 / b-adapt=2 / b-pyramid / bframe-bias=0 / rc-lookahead=25 / lookahead-slices=4 / scenecut=40 / radl=0 / no-splice / no-intra-refresh / ctu=64 / min-cu-size=8 / no-rect / no-amp / max-tu-size=32 / tu-inter-depth=1 / tu-intra-depth=1 / limit-tu=0 / rdoq-level=0 / dynamic-rd=0.00 / no-ssim-rd / signhide / no-tskip / nr-intra=0 / nr-inter=0 / no-constrained-intra / strong-intra-smoothing / max-merge=2 / limit-refs=3 / no-limit-modes / me=1 / subme=2 / merange=57 / temporal-mvp / weightp / no-weightb / no-analyze-src-pics / deblock=0:0 / no-sao / no-sao-non-deblock / rd=3 / no-early-skip / rskip / no-fast-intra / no-tskip-fast / no-cu-lossless / no-b-intra / no-splitrd-skip / rdpenalty=0 / psy-rd=2.00 / psy-rdoq=0.00 / no-rd-refine / no-lossless / cbqpoffs=0 / crqpoffs=0 / rc=crf / crf=16.0 / qcomp=0.60 / qpstep=4 / stats-write=0 / stats-read=0 / vbv-maxrate=160000 / vbv-bufsize=160000 / vbv-init=0.9 / crf-max=0.0 / crf-min=0.0 / ipratio=1.40 / pbratio=1.30 / aq-mode=1 / aq-strength=1.00 / cutree / zone-count=0 / no-strict-cbr / qg-size=32 / no-rc-grain / qpmax=69 / qpmin=0 / no-const-vbv / sar=1 / overscan=0 / videoformat=5 / range=0 / colorprim=2 / transfer=2 / colormatrix=2 / chromaloc=0 / display-window=0 / max-cll=0,0 / min-luma=0 / max-luma=1023 / log2-max-poc-lsb=8 / vui-timing-info / vui-hrd-info / slices=1 / opt-qp-pps / opt-ref-list-length-pps / no-multi-pass-opt-rps / scenecut-bias=0.05 / no-opt-cu-delta-qp / no-aq-motion / no-hdr / no-hdr-opt / no-dhdr10-opt / no-idr-recovery-sei / analysis-reuse-level=5 / scale-factor=0 / refine-intra=0 / refine-inter=0 / refine-mv=0 / refine-ctu-distortion=0 / no-limit-sao / ctu-info=0 / no-lowpass-dct / refine-analysis-type=0 / copy-pic=1 / max-ausize-factor=1.0 / no-dynamic-refine / no-single-sei / no-hevc-aq / qp-adaptation-range=1.00
  21. Default                                  : Yes
  22. Forced                                   : No

  23. Audio #1
  24. ID                                       : 2
  25. ID in the original source medium         : 4352 (0x1100)
  26. Format                                   : MLP FBA 16-ch
  27. Format/Info                              : Meridian Lossless Packing FBA with 16-channel presentation
  28. Commercial name                          : Dolby TrueHD with Dolby Atmos
  29. Codec ID                                 : A_TRUEHD
  30. Duration                                 : 1 h 32 min
  31. Bit rate mode                            : Variable
  32. Bit rate                                 : 4 640 kb/s
  33. Maximum bit rate                         : 7 854 kb/s
  34. Channel(s)                               : 8 channels
  35. Channel layout                           : L R C LFE Ls Rs Lb Rb
  36. Sampling rate                            : 48.0 kHz
  37. Frame rate                               : 1 200.000 FPS (40 SPF)
  38. Bit depth                                : 24 bits
  39. Compression mode                         : Lossless
  40. Stream size                              : 3.00 GiB (9%)
  41. Title                                    : TrueHD 7.1 Atmos
  42. Language                                 : English
  43. Default                                  : Yes
  44. Forced                                   : No
  45. Original source medium                   : Blu-ray
  46. Number of dynamic objects                : 11
  47. Bed channel count                        : 1 channel
  48. Bed channel configuration                : LFE

  49. Audio #2
  50. ID                                       : 3
  51. Format                                   : DTS XLL
  52. Format/Info                              : Digital Theater Systems
  53. Commercial name                          : DTS-HD Master Audio
  54. Codec ID                                 : A_DTS
  55. Duration                                 : 1 h 32 min
  56. Bit rate mode                            : Variable
  57. Bit rate                                 : 4 200 kb/s
  58. Channel(s)                               : 8 channels
  59. Channel layout                           : C L R LFE Lb Rb Lss Rss
  60. Sampling rate                            : 48.0 kHz
  61. Frame rate                               : 93.750 FPS (512 SPF)
  62. Bit depth                                : 24 bits
  63. Compression mode                         : Lossless
  64. Stream size                              : 2.71 GiB (8%)
  65. Title                                    : DTS-HD MA 7.1
  66. Language                                 : English
  67. Default                                  : No
  68. Forced                                   : No

  69. Audio #3
  70. ID                                       : 4
  71. ID in the original source medium         : 4352 (0x1100)
  72. Format                                   : AC-3
  73. Format/Info                              : Audio Coding 3
  74. Commercial name                          : Dolby Digital
  75. Codec ID                                 : A_AC3
  76. Duration                                 : 1 h 32 min
  77. Bit rate mode                            : Constant
  78. Bit rate                                 : 640 kb/s
  79. Channel(s)                               : 6 channels
  80. Channel layout                           : L R C LFE Ls Rs
  81. Sampling rate                            : 48.0 kHz
  82. Frame rate                               : 31.250 FPS (1536 SPF)
  83. Compression mode                         : Lossy
  84. Stream size                              : 423 MiB (1%)
  85. Title                                    : DD 5.1
  86. Language                                 : English
  87. Service kind                             : Complete Main
  88. Default                                  : No
  89. Forced                                   : No
  90. Original source medium                   : Blu-ray

  91. Text #1
  92. ID                                       : 5
  93. Format                                   : UTF-8
  94. Codec ID                                 : S_TEXT/UTF8
  95. Codec ID/Info                            : UTF-8 Plain Text
  96. Duration                                 : 1 h 30 min
  97. Bit rate                                 : 31 b/s
  98. Count of elements                        : 664
  99. Stream size                              : 20.9 KiB (0%)
  100. Title                                    : SRT
  101. Language                                 : English
  102. Default                                  : Yes
  103. Forced                                   : No

  104. Text #2
  105. ID                                       : 6
  106. ID in the original source medium         : 4768 (0x12A0)
  107. Format                                   : PGS
  108. Muxing mode                              : zlib
  109. Codec ID                                 : S_HDMV/PGS
  110. Codec ID/Info                            : Picture based subtitle format used on BDs/HD-DVDs
  111. Duration                                 : 1 h 31 min
  112. Bit rate                                 : 20.3 kb/s
  113. Count of elements                        : 1566
  114. Stream size                              : 13.3 MiB (0%)
  115. Title                                    : SDH
  116. Language                                 : English
  117. Default                                  : No
  118. Forced                                   : No
  119. Original source medium                   : Blu-ray

  120. Text #3
  121. ID                                       : 7
  122. ID in the original source medium         : 4769 (0x12A1)
  123. Format                                   : PGS
  124. Muxing mode                              : zlib
  125. Codec ID                                 : S_HDMV/PGS
  126. Codec ID/Info                            : Picture based subtitle format used on BDs/HD-DVDs
  127. Duration                                 : 1 h 22 min
  128. Bit rate                                 : 18.9 kb/s
  129. Count of elements                        : 1308
  130. Stream size                              : 11.1 MiB (0%)
  131. Language                                 : English
  132. Default                                  : No
  133. Forced                                   : No
  134. Original source medium                   : Blu-ray

  135. Text #4
  136. ID                                       : 8
  137. ID in the original source medium         : 4770 (0x12A2)
  138. Format                                   : PGS
  139. Muxing mode                              : zlib
  140. Codec ID                                 : S_HDMV/PGS
  141. Codec ID/Info                            : Picture based subtitle format used on BDs/HD-DVDs
  142. Duration                                 : 1 h 22 min
  143. Bit rate                                 : 9 619 b/s
  144. Count of elements                        : 1226
  145. Stream size                              : 5.66 MiB (0%)
  146. Language                                 : Arabic
  147. Default                                  : No
  148. Forced                                   : No
  149. Original source medium                   : Blu-ray

  150. Text #5
  151. ID                                       : 9
  152. ID in the original source medium         : 4771 (0x12A3)
  153. Format                                   : PGS
  154. Muxing mode                              : zlib
  155. Codec ID                                 : S_HDMV/PGS
  156. Codec ID/Info                            : Picture based subtitle format used on BDs/HD-DVDs
  157. Duration                                 : 1 h 22 min
  158. Bit rate                                 : 16.8 kb/s
  159. Count of elements                        : 1308
  160. Stream size                              : 9.88 MiB (0%)
  161. Language                                 : Chinese
  162. Default                                  : No
  163. Forced                                   : No
  164. Original source medium                   : Blu-ray

  165. Text #6
  166. ID                                       : 10
  167. ID in the original source medium         : 4772 (0x12A4)
  168. Format                                   : PGS
  169. Muxing mode                              : zlib
  170. Codec ID                                 : S_HDMV/PGS
  171. Codec ID/Info                            : Picture based subtitle format used on BDs/HD-DVDs
  172. Duration                                 : 1 h 22 min
  173. Bit rate                                 : 16.4 kb/s
  174. Count of elements                        : 1308
  175. Stream size                              : 9.64 MiB (0%)
  176. Language                                 : Chinese
  177. Default                                  : No
  178. Forced                                   : No
  179. Original source medium                   : Blu-ray

  180. Text #7
  181. ID                                       : 11
  182. ID in the original source medium         : 4773 (0x12A5)
  183. Format                                   : PGS
  184. Muxing mode                              : zlib
  185. Codec ID                                 : S_HDMV/PGS
  186. Codec ID/Info                            : Picture based subtitle format used on BDs/HD-DVDs
  187. Duration                                 : 1 h 31 min
  188. Bit rate                                 : 13.9 kb/s
  189. Count of elements                        : 1256
  190. Stream size                              : 9.09 MiB (0%)
  191. Language                                 : Czech
  192. Default                                  : No
  193. Forced                                   : No
  194. Original source medium                   : Blu-ray

  195. Text #8
  196. ID                                       : 12
  197. ID in the original source medium         : 4774 (0x12A6)
  198. Format                                   : PGS
  199. Muxing mode                              : zlib
  200. Codec ID                                 : S_HDMV/PGS
  201. Codec ID/Info                            : Picture based subtitle format used on BDs/HD-DVDs
  202. Duration                                 : 1 h 22 min
  203. Bit rate                                 : 16.6 kb/s
  204. Count of elements                        : 1120
  205. Stream size                              : 9.76 MiB (0%)
  206. Language                                 : Danish
  207. Default                                  : No
  208. Forced                                   : No
  209. Original source medium                   : Blu-ray

  210. Text #9
  211. ID                                       : 13
  212. ID in the original source medium         : 4775 (0x12A7)
  213. Format                                   : PGS
  214. Muxing mode                              : zlib
  215. Codec ID                                 : S_HDMV/PGS
  216. Codec ID/Info                            : Picture based subtitle format used on BDs/HD-DVDs
  217. Duration                                 : 1 h 22 min
  218. Bit rate                                 : 17.3 kb/s
  219. Count of elements                        : 1014
  220. Stream size                              : 10.2 MiB (0%)
  221. Language                                 : Dutch
  222. Default                                  : No
  223. Forced                                   : No
  224. Original source medium                   : Blu-ray

  225. Text #10
  226. ID                                       : 14
  227. ID in the original source medium         : 4776 (0x12A8)
  228. Format                                   : PGS
  229. Muxing mode                              : zlib
  230. Codec ID                                 : S_HDMV/PGS
  231. Codec ID/Info                            : Picture based subtitle format used on BDs/HD-DVDs
  232. Duration                                 : 1 h 31 min
  233. Bit rate                                 : 15.9 kb/s
  234. Count of elements                        : 1310
  235. Stream size                              : 10.4 MiB (0%)
  236. Language                                 : Finnish
  237. Default                                  : No
  238. Forced                                   : No
  239. Original source medium                   : Blu-ray

  240. Text #11
  241. ID                                       : 15
  242. ID in the original source medium         : 4777 (0x12A9)
  243. Format                                   : PGS
  244. Muxing mode                              : zlib
  245. Codec ID                                 : S_HDMV/PGS
  246. Codec ID/Info                            : Picture based subtitle format used on BDs/HD-DVDs
  247. Duration                                 : 1 h 31 min
  248. Bit rate                                 : 16.4 kb/s
  249. Count of elements                        : 1276
  250. Stream size                              : 10.8 MiB (0%)
  251. Language                                 : French
  252. Default                                  : No
  253. Forced                                   : No
  254. Original source medium                   : Blu-ray

  255. Text #12
  256. ID                                       : 16
  257. ID in the original source medium         : 4778 (0x12AA)
  258. Format                                   : PGS
  259. Muxing mode                              : zlib
  260. Codec ID                                 : S_HDMV/PGS
  261. Codec ID/Info                            : Picture based subtitle format used on BDs/HD-DVDs
  262. Duration                                 : 1 h 22 min
  263. Bit rate                                 : 18.3 kb/s
  264. Count of elements                        : 1292
  265. Stream size                              : 10.8 MiB (0%)
  266. Language                                 : German
  267. Default                                  : No
  268. Forced                                   : No
  269. Original source medium                   : Blu-ray

  270. Text #13
  271. ID                                       : 17
  272. ID in the original source medium         : 4779 (0x12AB)
  273. Format                                   : PGS
  274. Muxing mode                              : zlib
  275. Codec ID                                 : S_HDMV/PGS
  276. Codec ID/Info                            : Picture based subtitle format used on BDs/HD-DVDs
  277. Duration                                 : 1 h 22 min
  278. Bit rate                                 : 18.6 kb/s
  279. Count of elements                        : 1232
  280. Stream size                              : 11.0 MiB (0%)
  281. Language                                 : Greek
  282. Default                                  : No
  283. Forced                                   : No
  284. Original source medium                   : Blu-ray

  285. Text #14
  286. ID                                       : 18
  287. ID in the original source medium         : 4780 (0x12AC)
  288. Format                                   : PGS
  289. Muxing mode                              : zlib
  290. Codec ID                                 : S_HDMV/PGS
  291. Codec ID/Info                            : Picture based subtitle format used on BDs/HD-DVDs
  292. Duration                                 : 1 h 31 min
  293. Bit rate                                 : 13.6 kb/s
  294. Count of elements                        : 1310
  295. Stream size                              : 8.93 MiB (0%)
  296. Language                                 : Hindi
  297. Default                                  : No
  298. Forced                                   : No
  299. Original source medium                   : Blu-ray

  300. Text #15
  301. ID                                       : 19
  302. ID in the original source medium         : 4781 (0x12AD)
  303. Format                                   : PGS
  304. Muxing mode                              : zlib
  305. Codec ID                                 : S_HDMV/PGS
  306. Codec ID/Info                            : Picture based subtitle format used on BDs/HD-DVDs
  307. Duration                                 : 1 h 31 min
  308. Bit rate                                 : 13.9 kb/s
  309. Count of elements                        : 1196
  310. Stream size                              : 9.10 MiB (0%)
  311. Language                                 : Hungarian
  312. Default                                  : No
  313. Forced                                   : No
  314. Original source medium                   : Blu-ray

  315. Text #16
  316. ID                                       : 20
  317. ID in the original source medium         : 4782 (0x12AE)
  318. Format                                   : PGS
  319. Muxing mode                              : zlib
  320. Codec ID                                 : S_HDMV/PGS
  321. Codec ID/Info                            : Picture based subtitle format used on BDs/HD-DVDs
  322. Duration                                 : 1 h 31 min
  323. Bit rate                                 : 16.8 kb/s
  324. Count of elements                        : 1158
  325. Stream size                              : 11.0 MiB (0%)
  326. Language                                 : Icelandic
  327. Default                                  : No
  328. Forced                                   : No
  329. Original source medium                   : Blu-ray

  330. Text #17
  331. ID                                       : 21
  332. ID in the original source medium         : 4783 (0x12AF)
  333. Format                                   : PGS
  334. Muxing mode                              : zlib
  335. Codec ID                                 : S_HDMV/PGS
  336. Codec ID/Info                            : Picture based subtitle format used on BDs/HD-DVDs
  337. Duration                                 : 1 h 31 min
  338. Bit rate                                 : 17.9 kb/s
  339. Count of elements                        : 1314
  340. Stream size                              : 11.7 MiB (0%)
  341. Language                                 : Italian
  342. Default                                  : No
  343. Forced                                   : No
  344. Original source medium                   : Blu-ray

  345. Text #18
  346. ID                                       : 22
  347. ID in the original source medium         : 4784 (0x12B0)
  348. Format                                   : PGS
  349. Muxing mode                              : zlib
  350. Codec ID                                 : S_HDMV/PGS
  351. Codec ID/Info                            : Picture based subtitle format used on BDs/HD-DVDs
  352. Duration                                 : 1 h 31 min
  353. Bit rate                                 : 13.3 kb/s
  354. Count of elements                        : 1274
  355. Stream size                              : 8.68 MiB (0%)
  356. Language                                 : Japanese
  357. Default                                  : No
  358. Forced                                   : No
  359. Original source medium                   : Blu-ray

  360. Text #19
  361. ID                                       : 23
  362. ID in the original source medium         : 4785 (0x12B1)
  363. Format                                   : PGS
  364. Muxing mode                              : zlib
  365. Codec ID                                 : S_HDMV/PGS
  366. Codec ID/Info                            : Picture based subtitle format used on BDs/HD-DVDs
  367. Duration                                 : 1 h 23 min
  368. Bit rate                                 : 13.8 kb/s
  369. Count of elements                        : 1312
  370. Stream size                              : 8.28 MiB (0%)
  371. Language                                 : Korean
  372. Default                                  : No
  373. Forced                                   : No
  374. Original source medium                   : Blu-ray

  375. Text #20
  376. ID                                       : 24
  377. ID in the original source medium         : 4786 (0x12B2)
  378. Format                                   : PGS
  379. Muxing mode                              : zlib
  380. Codec ID                                 : S_HDMV/PGS
  381. Codec ID/Info                            : Picture based subtitle format used on BDs/HD-DVDs
  382. Duration                                 : 1 h 22 min
  383. Bit rate                                 : 18.9 kb/s
  384. Count of elements                        : 1308
  385. Stream size                              : 11.1 MiB (0%)
  386. Language                                 : Norwegian
  387. Default                                  : No
  388. Forced                                   : No
  389. Original source medium                   : Blu-ray

  390. Text #21
  391. ID                                       : 25
  392. ID in the original source medium         : 4787 (0x12B3)
  393. Format                                   : PGS
  394. Muxing mode                              : zlib
  395. Codec ID                                 : S_HDMV/PGS
  396. Codec ID/Info                            : Picture based subtitle format used on BDs/HD-DVDs
  397. Duration                                 : 1 h 22 min
  398. Bit rate                                 : 17.3 kb/s
  399. Count of elements                        : 1258
  400. Stream size                              : 10.2 MiB (0%)
  401. Language                                 : Polish
  402. Default                                  : No
  403. Forced                                   : No
  404. Original source medium                   : Blu-ray

  405. Text #22
  406. ID                                       : 26
  407. ID in the original source medium         : 4788 (0x12B4)
  408. Format                                   : PGS
  409. Muxing mode                              : zlib
  410. Codec ID                                 : S_HDMV/PGS
  411. Codec ID/Info                            : Picture based subtitle format used on BDs/HD-DVDs
  412. Duration                                 : 1 h 31 min
  413. Bit rate                                 : 17.4 kb/s
  414. Count of elements                        : 1304
  415. Stream size                              : 11.4 MiB (0%)
  416. Language                                 : Portuguese
  417. Default                                  : No
  418. Forced                                   : No
  419. Original source medium                   : Blu-ray

  420. Text #23
  421. ID                                       : 27
  422. ID in the original source medium         : 4789 (0x12B5)
  423. Format                                   : PGS
  424. Muxing mode                              : zlib
  425. Codec ID                                 : S_HDMV/PGS
  426. Codec ID/Info                            : Picture based subtitle format used on BDs/HD-DVDs
  427. Duration                                 : 1 h 31 min
  428. Bit rate                                 : 16.9 kb/s
  429. Count of elements                        : 1254
  430. Stream size                              : 11.1 MiB (0%)
  431. Language                                 : Romanian
  432. Default                                  : No
  433. Forced                                   : No
  434. Original source medium                   : Blu-ray

  435. Text #24
  436. ID                                       : 28
  437. ID in the original source medium         : 4790 (0x12B6)
  438. Format                                   : PGS
  439. Muxing mode                              : zlib
  440. Codec ID                                 : S_HDMV/PGS
  441. Codec ID/Info                            : Picture based subtitle format used on BDs/HD-DVDs
  442. Duration                                 : 1 h 31 min
  443. Bit rate                                 : 16.3 kb/s
  444. Count of elements                        : 1316
  445. Stream size                              : 10.7 MiB (0%)
  446. Language                                 : Slovak
  447. Default                                  : No
  448. Forced                                   : No
  449. Original source medium                   : Blu-ray

  450. Text #25
  451. ID                                       : 29
  452. ID in the original source medium         : 4791 (0x12B7)
  453. Format                                   : PGS
  454. Muxing mode                              : zlib
  455. Codec ID                                 : S_HDMV/PGS
  456. Codec ID/Info                            : Picture based subtitle format used on BDs/HD-DVDs
  457. Duration                                 : 1 h 22 min
  458. Bit rate                                 : 16.6 kb/s
  459. Count of elements                        : 1308
  460. Stream size                              : 9.78 MiB (0%)
  461. Language                                 : Slovenian
  462. Default                                  : No
  463. Forced                                   : No
  464. Original source medium                   : Blu-ray

  465. Text #26
  466. ID                                       : 30
  467. ID in the original source medium         : 4792 (0x12B8)
  468. Format                                   : PGS
  469. Muxing mode                              : zlib
  470. Codec ID                                 : S_HDMV/PGS
  471. Codec ID/Info                            : Picture based subtitle format used on BDs/HD-DVDs
  472. Duration                                 : 1 h 23 min
  473. Bit rate                                 : 18.8 kb/s
  474. Count of elements                        : 1248
  475. Stream size                              : 11.3 MiB (0%)
  476. Language                                 : Spanish
  477. Default                                  : No
  478. Forced                                   : No
  479. Original source medium                   : Blu-ray

  480. Text #27
  481. ID                                       : 31
  482. ID in the original source medium         : 4793 (0x12B9)
  483. Format                                   : PGS
  484. Muxing mode                              : zlib
  485. Codec ID                                 : S_HDMV/PGS
  486. Codec ID/Info                            : Picture based subtitle format used on BDs/HD-DVDs
  487. Duration                                 : 1 h 23 min
  488. Bit rate                                 : 17.2 kb/s
  489. Count of elements                        : 1282
  490. Stream size                              : 10.3 MiB (0%)
  491. Language                                 : Spanish
  492. Default                                  : No
  493. Forced                                   : No
  494. Original source medium                   : Blu-ray

  495. Text #28
  496. ID                                       : 32
  497. ID in the original source medium         : 4794 (0x12BA)
  498. Format                                   : PGS
  499. Muxing mode                              : zlib
  500. Codec ID                                 : S_HDMV/PGS
  501. Codec ID/Info                            : Picture based subtitle format used on BDs/HD-DVDs
  502. Duration                                 : 1 h 22 min
  503. Bit rate                                 : 18.7 kb/s
  504. Count of elements                        : 1284
  505. Stream size                              : 11.0 MiB (0%)
  506. Language                                 : Swedish
  507. Default                                  : No
  508. Forced                                   : No
  509. Original source medium                   : Blu-ray

  510. Text #29
  511. ID                                       : 33
  512. ID in the original source medium         : 4795 (0x12BB)
  513. Format                                   : PGS
  514. Muxing mode                              : zlib
  515. Codec ID                                 : S_HDMV/PGS
  516. Codec ID/Info                            : Picture based subtitle format used on BDs/HD-DVDs
  517. Duration                                 : 1 h 22 min
  518. Bit rate                                 : 18.6 kb/s
  519. Count of elements                        : 1296
  520. Stream size                              : 11.0 MiB (0%)
  521. Language                                 : Thai
  522. Default                                  : No
  523. Forced                                   : No
  524. Original source medium                   : Blu-ray

  525. Text #30
  526. ID                                       : 34
  527. ID in the original source medium         : 4796 (0x12BC)
  528. Format                                   : PGS
  529. Muxing mode                              : zlib
  530. Codec ID                                 : S_HDMV/PGS
  531. Codec ID/Info                            : Picture based subtitle format used on BDs/HD-DVDs
  532. Duration                                 : 1 h 22 min
  533. Bit rate                                 : 17.5 kb/s
  534. Count of elements                        : 1308
  535. Stream size                              : 10.3 MiB (0%)
  536. Language                                 : Turkish
  537. Default                                  : No
  538. Forced                                   : No
  539. Original source medium                   : Blu-ray

  540. Menu
  541. 00:00:00.000                             : en:Chapter 01
  542. 00:06:20.880                             : en:Chapter 02
  543. 00:11:43.411                             : en:Chapter 03
  544. 00:16:45.629                             : en:Chapter 04
  545. 00:24:34.055                             : en:Chapter 05
  546. 00:30:29.285                             : en:Chapter 06
  547. 00:36:34.066                             : en:Chapter 07
  548. 00:40:18.040                             : en:Chapter 08
  549. 00:46:29.870                             : en:Chapter 09
  550. 00:50:55.594                             : en:Chapter 10
  551. 00:55:09.222                             : en:Chapter 11
  552. 01:00:40.303                             : en:Chapter 12
  553. 01:07:14.280                             : en:Chapter 13
  554. 01:13:30.322                             : en:Chapter 14
  555. 01:16:39.553                             : en:Chapter 15
  556. 01:22:34.532                             : en:Chapter 16
复制代码









                                       
                                       

                                       
                                       
                                       




回复

使用道具 举报

蓝光币
23
发表于 2021-10-30 18:35:26 | 显示全部楼层

这东西我收了!谢谢楼主!蓝光电影网真好!
回复 支持 反对

使用道具 举报

蓝光币
2
发表于 2021-10-30 22:01:05 | 显示全部楼层
楼主发贴辛苦了,谢谢楼主分享!我觉得蓝光电影网是注册对了!
回复 支持 反对

使用道具 举报

蓝光币
32
发表于 2021-10-31 09:06:13 | 显示全部楼层
顶顶顶顶顶顶
回复 支持 反对

使用道具 举报

蓝光币
137
发表于 2021-10-31 10:56:11 | 显示全部楼层

我看不错噢 谢谢楼主!蓝光电影网越来越好!
回复 支持 反对

使用道具 举报

懒得打字嘛,点击右侧快捷回复 【右侧内容,后台自定义】
您需要登录后才可以回帖 登录 | 立即加入

本版积分规则

Archiver|小黑屋| 蓝光电影网 |网站地图

Copyright © 2021 Comsenz Inc. Powered by 蓝光电影网

蓝光电影网

本站内容由用户自主分享和转载自互联网,转载目的在于传递更多信息,并不代表本网赞同其观点和对其真实性负责。

如有侵权、违反国家法律政策行为,请联系我们,我们会第一时间及时清除和处理!

举报反馈邮箱:[email protected]

快速回复 返回顶部 返回列表