找回密码

蓝光电影网

查看: 205|回复: 0

[10bit.HDR] 亚当斯一家/爱登士家庭 The.Addams.Family.1991.THEATRICAL.2160p.UHD.BluRay.x265.10bit.HDR.DTS-HD.MA.5.1-B0MBARDiERS 26.47GB

[复制链接]
蓝光币
730
发表于 2021-11-26 19:55:48 | 显示全部楼层 |阅读模式


◎译  名 亚当斯一家/爱登士家庭(港)/阿达一族
◎片  名 The Addams Family
◎年  代 1991
◎产  地 美国
◎类  别 笑剧 / 家庭 / 奇异
◎语  言 英语
◎上映日期 1991-11-22
◎豆瓣评分 8.5/10 from 53186 users
◎豆瓣链接 https://movie.douban.com/subject/1293718/
◎片  长 100分钟
◎导  演 巴里·索南菲尔德 Barry Sonnenfeld
◎编  剧 卡罗琳·汤普森 Caroline Thompson
◎主  演 安杰丽卡·休斯顿 Anjelica Huston
       劳尔·胡里亚 Raul Julia
       克里斯托弗·洛伊德 Christopher Lloyd
       克里斯蒂娜·里奇 Christina Ricci
       丹娜·爱薇 Dana Ivey
       卡雷尔·斯特鲁基 Carel Struycken
       丹·哈达亚 Dan Hedaya
       伊莉莎白·威尔森 Elizabeth Wilson
◎标  签 黑色诙谐 | 哥特 | 笑剧 | 美国 | 奇异 | 魔幻 | 歌特 | 美国电影
◎简  介


  亚当斯庄园里住着一个典型哥特式家庭。戈梅斯(劳尔·朱力亚 Raul Julia饰)和妻子(安杰丽卡·休斯顿 Anjelica Huston饰)终年生活在这里,处处满盈阴霾败北的气味。二人豪情如蜜,有一双喜好玩谋杀游戏的后代。戈梅斯的心里,却埋藏着一个伤疤。那就是他已经和哥哥费斯特失和,费斯特已经失落25年,戈梅特仍然放不下对哥哥的惦念。
  
  一心要夺取亚当斯庄园和这里的财富的母亲有一个儿子戈登(克里斯托弗·洛伊德 Christopher Lloyd饰),貌相跟费斯特相向。因而,一场诡计上演了,她指使戈登佯装费斯特潜入亚当斯庄园,操纵戈梅斯的兄弟情一步一步地夺取庄园。
  
  公然,戈登的到来不但使戈梅斯大为欣喜,他渐渐融入这里的家庭生活,戈梅斯一家也随之堕入危险的泥沼中。当他们被夺走产业,凄苦沉溺时,工作又有了峰回路转的变化。
◎获奖情况
  第64届奥斯卡金像奖 ?(1992)
  最好打扮设想(提名) 露丝·迈尔斯

  1. Video
  2. ID : 1
  3. Format : HEVC
  4. Format/Info : High Efficiency Video Coding
  5. Format profile : Main [email protected]@High
  6. HDR format : SMPTE ST 2086, HDR10 compatible
  7. Codec ID : V_MPEGH/ISO/HEVC
  8. Duration : 1 h 39 min
  9. Bit rate : 33.4 Mb/s
  10. Width : 3 840 pixels
  11. Height : 2 076 pixels
  12. Display aspect ratio : 1.85:1
  13. Frame rate mode : Constant
  14. Frame rate : 23.976 (24000/1001) FPS
  15. Color space : YUV
  16. Chroma subsampling : 4:2:0 (Type 2)
  17. Bit depth : 10 bits
  18. Bits/(Pixel*Frame) : 0.175
  19. Stream size : 23.3 GiB (89%)
  20. Writing library : x265 3.5+19-8003e4382:[Windows][GCC 11.2.0][64 bit] 10bit
  21. Encoding settings : cpuid=1176575 / frame-threads=6 / numa-pools=36 / wpp / no-pmode / no-pme / no-psnr / no-ssim / log-level=2 / input-csp=1 / input-res=3840x2076 / interlace=0 / total-frames=143313 / level-idc=51 / high-tier=1 / uhd-bd=0 / ref=4 / no-allow-non-conformance / repeat-headers / annexb / aud / no-eob / no-eos / hrd / info / hash=0 / no-temporal-layers / open-gop / min-keyint=23 / keyint=250 / gop-lookahead=0 / bframes=4 / b-adapt=2 / b-pyramid / bframe-bias=0 / rc-lookahead=25 / lookahead-slices=4 / scenecut=40 / no-hist-scenecut / radl=0 / no-splice / no-intra-refresh / ctu=64 / min-cu-size=8 / rect / no-amp / max-tu-size=32 / tu-inter-depth=1 / tu-intra-depth=1 / limit-tu=0 / rdoq-level=2 / dynamic-rd=0.00 / no-ssim-rd / signhide / no-tskip / nr-intra=0 / nr-inter=0 / no-constrained-intra / strong-intra-smoothing / max-merge=3 / limit-refs=3 / limit-modes / me=3 / subme=3 / merange=57 / temporal-mvp / no-frame-dup / no-hme / weightp / no-weightb / no-analyze-src-pics / deblock=-3:-3 / no-sao / no-sao-non-deblock / rd=4 / selective-sao=0 / no-early-skip / rskip / no-fast-intra / no-tskip-fast / no-cu-lossless / no-b-intra / no-splitrd-skip / rdpenalty=0 / psy-rd=2.00 / psy-rdoq=1.00 / no-rd-refine / no-lossless / cbqpoffs=0 / crqpoffs=0 / rc=crf / crf=14.0 / qcomp=0.60 / qpstep=4 / stats-write=0 / stats-read=0 / vbv-maxrate=160000 / vbv-bufsize=160000 / vbv-init=0.9 / min-vbv-fullness=50.0 / max-vbv-fullness=80.0 / crf-max=0.0 / crf-min=0.0 / ipratio=1.40 / pbratio=1.30 / aq-mode=2 / aq-strength=1.00 / cutree / zone-count=0 / no-strict-cbr / qg-size=32 / no-rc-grain / qpmax=69 / qpmin=0 / no-const-vbv / sar=1 / overscan=0 / videoformat=5 / range=0 / colorprim=9 / transfer=16 / colormatrix=9 / chromaloc=1 / chromaloc-top=2 / chromaloc-bottom=2 / display-window=0 / master-display=G(13250,34500)B(7500,3000)R(34000,16000)WP(15635,16450)L(10000000,10) / cll=1000,214 / min-luma=0 / max-luma=1023 / log2-max-poc-lsb=8 / vui-timing-info / vui-hrd-info / slices=1 / no-opt-qp-pps / no-opt-ref-list-length-pps / no-multi-pass-opt-rps / scenecut-bias=0.05 / hist-threshold=0.03 / no-opt-cu-delta-qp / no-aq-motion / hdr10 / hdr10-opt / no-dhdr10-opt / no-idr-recovery-sei / analysis-reuse-level=0 / analysis-save-reuse-level=0 / analysis-load-reuse-level=0 / scale-factor=0 / refine-intra=0 / refine-inter=0 / refine-mv=1 / refine-ctu-distortion=0 / no-limit-sao / ctu-info=0 / no-lowpass-dct / refine-analysis-type=0 / copy-pic=1 / max-ausize-factor=1.0 / no-dynamic-refine / no-single-sei / no-hevc-aq / no-svt / no-field / qp-adaptation-range=1.00 / scenecut-aware-qp=0conformance-window-offsets / right=0 / bottom=0 / decoder-max-rate=0 / no-vbv-live-multi-pass
  22. Default : Yes
  23. Forced : No
  24. Color range : Limited
  25. Color primaries : BT.2020
  26. Transfer characteristics : PQ
  27. Matrix coefficients : BT.2020 non-constant
  28. Mastering display color primaries : Display P3
  29. Mastering display luminance : min: 0.0010 cd/m2, max: 1000 cd/m2
  30. Maximum Content Light Level : 1000 cd/m2
  31. Maximum Frame-Average Light Level : 214 cd/m2

  32. Audio
  33. ID : 2
  34. Format : DTS XLL
  35. Format/Info : Digital Theater Systems
  36. Commercial name : DTS-HD Master Audio
  37. Codec ID : A_DTS
  38. Duration : 1 h 39 min
  39. Bit rate mode : Variable
  40. Bit rate : 4 147 kb/s
  41. Channel(s) : 6 channels
  42. Channel layout : C L R Ls Rs LFE
  43. Sampling rate : 48.0 kHz
  44. Frame rate : 93.750 FPS (512 SPF)
  45. Bit depth : 24 bits
  46. Compression mode : Lossless
  47. Stream size : 2.89 GiB (11%)
  48. Language : English
  49. Default : Yes
  50. Forced : No

  51. Text #1
  52. ID : 3
  53. Format : PGS
  54. Muxing mode : zlib
  55. Codec ID : S_HDMV/PGS
  56. Codec ID/Info : Picture based subtitle format used on BDs/HD-DVDs
  57. Duration : 1 h 30 min
  58. Bit rate : 33.3 kb/s
  59. Count of elements : 2196
  60. Stream size : 21.7 MiB (0%)
  61. Title : English
  62. Language : English
  63. Default : No
  64. Forced : No

  65. Text #2
  66. ID : 4
  67. Format : PGS
  68. Muxing mode : zlib
  69. Codec ID : S_HDMV/PGS
  70. Codec ID/Info : Picture based subtitle format used on BDs/HD-DVDs
  71. Duration : 1 h 35 min
  72. Bit rate : 39.1 kb/s
  73. Count of elements : 2754
  74. Stream size : 26.6 MiB (0%)
  75. Title : English SDH
  76. Language : English
  77. Default : No
  78. Forced : No

  79. Text #3
  80. ID : 5
  81. Format : PGS
  82. Muxing mode : zlib
  83. Codec ID : S_HDMV/PGS
  84. Codec ID/Info : Picture based subtitle format used on BDs/HD-DVDs
  85. Duration : 1 h 38 min
  86. Bit rate : 25.8 kb/s
  87. Count of elements : 1958
  88. Stream size : 18.1 MiB (0%)
  89. Title : French
  90. Language : French
  91. Default : No
  92. Forced : No

  93. Menu
  94. 00:00:00.000 : en:Chapter 01
  95. 00:02:58.428 : en:Chapter 02
  96. 00:06:45.739 : en:Chapter 03
  97. 00:13:45.658 : en:Chapter 04
  98. 00:17:21.415 : en:Chapter 05
  99. 00:23:21.775 : en:Chapter 06
  100. 00:29:24.554 : en:Chapter 07
  101. 00:36:06.915 : en:Chapter 08
  102. 00:41:57.515 : en:Chapter 09
  103. 00:49:35.598 : en:Chapter 10
  104. 00:57:36.703 : en:Chapter 11
  105. 01:05:03.399 : en:Chapter 12
  106. 01:13:41.042 : en:Chapter 13
  107. 01:17:46.161 : en:Chapter 14
  108. 01:23:01.476 : en:Chapter 15
  109. 01:26:15.045 : en:Chapter 16
  110. 01:31:05.001 : en:Chapter 17
  111. 01:35:06.618 : en:Chapter 18
  112. 01:39:37.096 : en:Chapter 19
复制代码




                                       
                                       

                                       
                                       
                                       




回复

使用道具 举报

懒得打字嘛,点击右侧快捷回复 【右侧内容,后台自定义】
您需要登录后才可以回帖 登录 | 立即加入

本版积分规则

Archiver|小黑屋| 蓝光电影网 |网站地图

Copyright © 2021 Comsenz Inc. Powered by 蓝光电影网

蓝光电影网

本站内容由用户自主分享和转载自互联网,转载目的在于传递更多信息,并不代表本网赞同其观点和对其真实性负责。

如有侵权、违反国家法律政策行为,请联系我们,我们会第一时间及时清除和处理!

举报反馈邮箱:[email protected]

快速回复 返回顶部 返回列表