找回密码

蓝光电影网

查看: 288|回复: 1

[10bit.SDR] 亚当斯一家/爱登士家庭 The.Addams.Family.1991.EXTENDED.2160p.BluRay.x265.10bit.SDR.DTS-HD.MA.5.1-SWTYBLZ 33.71GB

[复制链接]
蓝光币
730
发表于 2021-11-26 22:17:27 | 显示全部楼层 |阅读模式


◎译  名 亚当斯一家/爱登士家庭(港)/阿达一族
◎片  名 The Addams Family
◎年  代 1991
◎产  地 美国
◎类  别 笑剧 / 家庭 / 奇异
◎语  言 英语
◎上映日期 1991-11-22
◎豆瓣评分 8.5/10 from 53198 users
◎豆瓣链接 https://movie.douban.com/subject/1293718/
◎片  长 100分钟
◎导  演 巴里·索南菲尔德 Barry Sonnenfeld
◎编  剧 卡罗琳·汤普森 Caroline Thompson
◎主  演 安杰丽卡·休斯顿 Anjelica Huston
       劳尔·胡里亚 Raul Julia
       克里斯托弗·洛伊德 Christopher Lloyd
       克里斯蒂娜·里奇 Christina Ricci
       丹娜·爱薇 Dana Ivey
       卡雷尔·斯特鲁基 Carel Struycken
       丹·哈达亚 Dan Hedaya
       伊莉莎白·威尔森 Elizabeth Wilson
◎标  签 黑色诙谐 | 哥特 | 笑剧 | 美国 | 奇异 | 魔幻 | 歌特 | 美国电影
◎简  介


  亚当斯庄园里住着一个典型哥特式家庭。戈梅斯(劳尔·朱力亚 Raul Julia饰)和妻子(安杰丽卡·休斯顿 Anjelica Huston饰)终年生活在这里,处处满盈阴霾败北的气味。二人豪情如蜜,有一双喜好玩谋杀游戏的后代。戈梅斯的心里,却埋藏着一个伤疤。那就是他已经和哥哥费斯特失和,费斯特已经失落25年,戈梅特仍然放不下对哥哥的惦念。
  
  一心要夺取亚当斯庄园和这里的财富的母亲有一个儿子戈登(克里斯托弗·洛伊德 Christopher Lloyd饰),貌相跟费斯特相向。因而,一场诡计上演了,她指使戈登佯装费斯特潜入亚当斯庄园,操纵戈梅斯的兄弟情一步一步地夺取庄园。
  
  公然,戈登的到来不但使戈梅斯大为欣喜,他渐渐融入这里的家庭生活,戈梅斯一家也随之堕入危险的泥沼中。当他们被夺走产业,凄苦沉溺时,工作又有了峰回路转的变化。
◎获奖情况
  第64届奥斯卡金像奖 ?(1992)
  最好打扮设想(提名) 露丝·迈尔斯
  1. Video
  2. ID                                       : 1
  3. Format                                   : HEVC
  4. Format/Info                              : High Efficiency Video Coding
  5. Format profile                           : Main [email protected]@High
  6. Codec ID                                 : V_MPEGH/ISO/HEVC
  7. Duration                                 : 1 h 41 min
  8. Bit rate                                 : 42.7 Mb/s
  9. Width                                    : 3 840 pixels
  10. Height                                   : 2 076 pixels
  11. Display aspect ratio                     : 1.85:1
  12. Frame rate mode                          : Constant
  13. Frame rate                               : 23.976 (24000/1001/189150) FPS
  14. Color space                              : YUV
  15. Chroma subsampling                       : 4:2:0
  16. Bit depth                                : 10 bits
  17. Bits/(Pixel*Frame)                       : 0.223
  18. Stream size                              : 30.2 GiB (90%)
  19. Writing library                          : x265 3.0ed72af837053:[Windows][GCC 8.2.0][64 bit] 10bit
  20. Encoding settings                        : cpuid=1111039 / frame-threads=6 / numa-pools=40 / wpp / no-pmode / no-pme / no-psnr / no-ssim / log-level=2 / input-csp=1 / input-res=3840x2076 / interlace=0 / total-frames=145511 / level-idc=51 / high-tier=1 / uhd-bd=0 / ref=3 / no-allow-non-conformance / repeat-headers / annexb / aud / hrd / info / hash=0 / no-temporal-layers / no-open-gop / min-keyint=1 / keyint=24 / gop-lookahead=0 / bframes=4 / b-adapt=2 / b-pyramid / bframe-bias=0 / rc-lookahead=25 / lookahead-slices=4 / scenecut=40 / radl=0 / no-splice / no-intra-refresh / ctu=64 / min-cu-size=8 / no-rect / no-amp / max-tu-size=32 / tu-inter-depth=1 / tu-intra-depth=1 / limit-tu=0 / rdoq-level=0 / dynamic-rd=0.00 / no-ssim-rd / signhide / no-tskip / nr-intra=0 / nr-inter=0 / no-constrained-intra / strong-intra-smoothing / max-merge=2 / limit-refs=3 / no-limit-modes / me=1 / subme=2 / merange=57 / temporal-mvp / weightp / no-weightb / no-analyze-src-pics / deblock=0:0 / no-sao / no-sao-non-deblock / rd=3 / no-early-skip / rskip / no-fast-intra / no-tskip-fast / no-cu-lossless / no-b-intra / no-splitrd-skip / rdpenalty=0 / psy-rd=2.00 / psy-rdoq=0.00 / no-rd-refine / no-lossless / cbqpoffs=0 / crqpoffs=0 / rc=crf / crf=16.0 / qcomp=0.60 / qpstep=4 / stats-write=0 / stats-read=0 / vbv-maxrate=160000 / vbv-bufsize=160000 / vbv-init=0.9 / crf-max=0.0 / crf-min=0.0 / ipratio=1.40 / pbratio=1.30 / aq-mode=1 / aq-strength=1.00 / cutree / zone-count=0 / no-strict-cbr / qg-size=32 / no-rc-grain / qpmax=69 / qpmin=0 / no-const-vbv / sar=1 / overscan=0 / videoformat=5 / range=0 / colorprim=2 / transfer=2 / colormatrix=2 / chromaloc=0 / display-window=0 / max-cll=0,0 / min-luma=0 / max-luma=1023 / log2-max-poc-lsb=8 / vui-timing-info / vui-hrd-info / slices=1 / opt-qp-pps / opt-ref-list-length-pps / no-multi-pass-opt-rps / scenecut-bias=0.05 / no-opt-cu-delta-qp / no-aq-motion / no-hdr / no-hdr-opt / no-dhdr10-opt / no-idr-recovery-sei / analysis-reuse-level=5 / scale-factor=0 / refine-intra=0 / refine-inter=0 / refine-mv=0 / refine-ctu-distortion=0 / no-limit-sao / ctu-info=0 / no-lowpass-dct / refine-analysis-type=0 / copy-pic=1 / max-ausize-factor=1.0 / no-dynamic-refine / no-single-sei / no-hevc-aq / qp-adaptation-range=1.00
  21. Default                                  : Yes
  22. Forced                                   : No
  23. Audio #1
  24. ID                                       : 2
  25. ID in the original source medium         : 4352 (0x1100)
  26. Format                                   : DTS XLL
  27. Format/Info                              : Digital Theater Systems
  28. Commercial name                          : DTS-HD Master Audio
  29. Codec ID                                 : A_DTS
  30. Duration                                 : 1 h 41 min
  31. Bit rate mode                            : Variable
  32. Bit rate                                 : 4 150 kb/s
  33. Channel(s)                               : 6 channels
  34. Channel layout                           : C L R Ls Rs LFE
  35. Sampling rate                            : 48.0 kHz
  36. Frame rate                               : 93.750 FPS (512 SPF)
  37. Bit depth                                : 24 bits
  38. Compression mode                         : Lossless
  39. Stream size                              : 2.93 GiB (9%)
  40. Title                                    : DTS-HD MA 5.1
  41. Language                                 : English
  42. Default                                  : Yes
  43. Forced                                   : No
  44. Original source medium                   : Blu-ray
  45. Audio #2
  46. ID                                       : 3
  47. Format                                   : AC-3
  48. Format/Info                              : Audio Coding 3
  49. Commercial name                          : Dolby Digital
  50. Codec ID                                 : A_AC3
  51. Duration                                 : 1 h 41 min
  52. Bit rate mode                            : Constant
  53. Bit rate                                 : 640 kb/s
  54. Channel(s)                               : 6 channels
  55. Channel layout                           : L R C LFE Ls Rs
  56. Sampling rate                            : 48.0 kHz
  57. Frame rate                               : 31.250 FPS (1536 SPF)
  58. Compression mode                         : Lossy
  59. Stream size                              : 463 MiB (1%)
  60. Title                                    : DD 5.1
  61. Language                                 : English
  62. Service kind                             : Complete Main
  63. Default                                  : No
  64. Forced                                   : No
  65. Text #1
  66. ID                                       : 4
  67. Format                                   : UTF-8
  68. Codec ID                                 : S_TEXT/UTF8
  69. Codec ID/Info                            : UTF-8 Plain Text
  70. Duration                                 : 1 h 32 min
  71. Bit rate                                 : 48 b/s
  72. Count of elements                        : 1129
  73. Stream size                              : 32.9 KiB (0%)
  74. Language                                 : English
  75. Default                                  : Yes
  76. Forced                                   : No
  77. Text #2
  78. ID                                       : 5
  79. ID in the original source medium         : 4768 (0x12A0)
  80. Format                                   : PGS
  81. Muxing mode                              : zlib
  82. Codec ID                                 : S_HDMV/PGS
  83. Codec ID/Info                            : Picture based subtitle format used on BDs/HD-DVDs
  84. Duration                                 : 1 h 32 min
  85. Bit rate                                 : 33.9 kb/s
  86. Count of elements                        : 2262
  87. Stream size                              : 22.4 MiB (0%)
  88. Language                                 : English
  89. Default                                  : No
  90. Forced                                   : No
  91. Original source medium                   : Blu-ray
  92. Text #3
  93. ID                                       : 6
  94. ID in the original source medium         : 4769 (0x12A1)
  95. Format                                   : PGS
  96. Muxing mode                              : zlib
  97. Codec ID                                 : S_HDMV/PGS
  98. Codec ID/Info                            : Picture based subtitle format used on BDs/HD-DVDs
  99. Duration                                 : 1 h 36 min
  100. Bit rate                                 : 39.8 kb/s
  101. Count of elements                        : 2824
  102. Stream size                              : 27.5 MiB (0%)
  103. Language                                 : English
  104. Default                                  : No
  105. Forced                                   : No
  106. Original source medium                   : Blu-ray
  107. Text #4
  108. ID                                       : 7
  109. ID in the original source medium         : 4770 (0x12A2)
  110. Format                                   : PGS
  111. Muxing mode                              : zlib
  112. Codec ID                                 : S_HDMV/PGS
  113. Codec ID/Info                            : Picture based subtitle format used on BDs/HD-DVDs
  114. Duration                                 : 1 h 39 min
  115. Bit rate                                 : 26.3 kb/s
  116. Count of elements                        : 2020
  117. Stream size                              : 18.8 MiB (0%)
  118. Language                                 : French
  119. Default                                  : No
  120. Forced                                   : No
  121. Original source medium                   : Blu-ray
  122. Text #5
  123. ID                                       : 8
  124. ID in the original source medium         : 4770 (0x12A2)
  125. Format                                   : PGS
  126. Muxing mode                              : zlib
  127. Codec ID                                 : S_HDMV/PGS
  128. Codec ID/Info                            : Picture based subtitle format used on BDs/HD-DVDs
  129. Duration                                 : 1 h 39 min
  130. Bit rate                                 : 1 135 b/s
  131. Count of elements                        : 76
  132. Stream size                              : 828 KiB (0%)
  133. Title                                    : FORCED
  134. Language                                 : French
  135. Default                                  : No
  136. Forced                                   : No
  137. Original source medium                   : Blu-ray
  138. Menu
  139. 00:00:00.000                             : en:Chapter 01
  140. 00:02:58.428                             : en:Chapter 02
  141. 00:06:45.738                             : en:Chapter 03
  142. 00:13:45.491                             : en:Chapter 04
  143. 00:17:21.415                             : en:Chapter 05
  144. 00:23:21.483                             : en:Chapter 06
  145. 00:29:24.220                             : en:Chapter 07
  146. 00:36:06.539                             : en:Chapter 08
  147. 00:41:57.515                             : en:Chapter 09
  148. 00:49:35.597                             : en:Chapter 10
  149. 00:57:36.703                             : en:Chapter 11
  150. 01:05:03.190                             : en:Chapter 12
  151. 01:15:12.508                             : en:Chapter 13
  152. 01:19:17.586                             : en:Chapter 14
  153. 01:24:33.151                             : en:Chapter 15
  154. 01:27:46.719                             : en:Chapter 16
  155. 01:32:36.717                             : en:Chapter 17
  156. 01:36:38.250                             : en:Chapter 18
复制代码






                                       
                                       

                                       
                                       
                                       




回复

使用道具 举报

蓝光币
34
发表于 2021-11-30 20:22:54 | 显示全部楼层
这必须是好电影 感谢分享
回复 支持 反对

使用道具 举报

懒得打字嘛,点击右侧快捷回复 【右侧内容,后台自定义】
您需要登录后才可以回帖 登录 | 立即加入

本版积分规则

Archiver|小黑屋| 蓝光电影网 |网站地图

Copyright © 2021 Comsenz Inc. Powered by 蓝光电影网

蓝光电影网

本站内容由用户自主分享和转载自互联网,转载目的在于传递更多信息,并不代表本网赞同其观点和对其真实性负责。

如有侵权、违反国家法律政策行为,请联系我们,我们会第一时间及时清除和处理!

举报反馈邮箱:[email protected]

快速回复 返回顶部 返回列表