找回密码

蓝光电影网

查看: 221|回复: 4

[2160p] 永恒族 Eternals.2021.IMAX.2160p.DSNP.WEB-DL.DDP5.1.Atmos.DV.MP4.x265-DVSUX 18.74GB

[复制链接]
蓝光币
730
发表于 2022-1-14 11:48:42 | 显示全部楼层 |阅读模式


◎译  名 永久族/The Eternals/永久神族
◎片  名 Eternals
◎年  代 2021
◎产  地 美国
◎类  别 行动 / 科幻 / 奇异 / 冒险
◎语  言 英语,美国手语,西班牙语,拉丁语,古希腊语
◎上映日期 2021-11-05(美国)
◎豆瓣评分 6.1/10 from 30447 users
◎豆瓣链接 https://movie.douban.com/subject/30223888/
◎片  长 157分钟
◎导  演 赵婷 Chloé Zhao
◎编  剧 赵婷 Chloé Zhao / 帕特里克·伯利 Patrick Burleigh / 瑞恩·弗雷波 Ryan Firpo / 马修·弗雷波 Matthew K. Firpo / 杰克·科比 Jack Kirby
◎主  演 嘉玛·陈 Gemma Chan
       理查德·麦登 Richard Madden
       安吉丽娜·朱莉 Angelina Jolie
       萨尔玛·海耶克 Salma Hayek
       库梅尔·南贾尼 Kumail Nanjiani
       莉亚·麦克休 Lia McHugh
       布莱恩·泰里·亨利 Brian Tyree Henry
       劳伦·利德洛夫 Lauren Ridloff
       巴里·基奥恩 Barry Keoghan
       马东锡 Don Lee
       基特·哈灵顿 Kit Harington
       哈里什·帕特尔 Harish Patel
       比尔·斯卡斯加德 Bill Skarsg?rd
       哈斯·塞雷曼 Haaz Sleiman
       以扫·丹尼尔·克罗斯 Esai Daniel Cross
       哈里·斯泰尔斯 Harry Styles
       艾伦·斯科特 Alan Scott
       汉娜·多德 Hannah Dodd
       妮基塔·查达哈 Nikkita Chadha
       格雷厄姆·福克斯 Grahame Fox
       赞恩·阿尔·拉菲亚 Zain al-Rafeea
       卢西娅·埃夫斯塔希奥 Lucia Efstathiou
       帕顿·奥斯瓦尔特 Patton Oswalt
       大卫·卡耶 David Kaye
       马赫沙拉·阿里 Mahershala Ali
       布伦达·洛伦娜·加西亚 Brenda Lorena Garcia
       吉安尼·卡尔切蒂 Gianni Calchetti
◎简  介


  漫威影业出品的《永久族》报告了一群太古豪杰的故事。他们来自于悠远的星球,从人类诞生之初就庇护着地球。当已销声匿迹多时的异常族怪物奥秘地东山复兴时,永久族被迫重新团圆,以再次庇护人类。
  1. Video
  2. ID                                       : 1
  3. Format                                   : HEVC
  4. Format/Info                              : High Efficiency Video Coding
  5. Format profile                           : Main [email protected]@High
  6. HDR format                               : Dolby Vision, Version 1.0, dvhe.05.06, BL+RPU
  7. Codec ID                                 : dvhe
  8. Codec ID/Info                            : High Efficiency Video Coding with Dolby Vision
  9. Duration                                 : 2 h 35 min
  10. Bit rate                                 : 16.4 Mb/s
  11. Width                                    : 3 840 pixels
  12. Height                                   : 2 160 pixels
  13. Display aspect ratio                     : 16:9
  14. Frame rate mode                          : Constant
  15. Frame rate                               : 23.976 (24000/1001/189150) FPS
  16. Color space                              : YUV
  17. Chroma subsampling                       : 4:2:0
  18. Bit depth                                : 10 bits
  19. Bits/(Pixel*Frame)                       : 0.083
  20. Stream size                              : 17.9 GiB (96%)
  21. Default                                  : Yes
  22. Alternate group                          : 1
  23. Encoded date                             : UTC 2022-01-13 21:10:57
  24. Tagged date                              : UTC 2022-01-13 21:16:35
  25. Color range                              : Full
  26. Codec configuration box                  : hvcC+dvcC

  27. Audio
  28. ID                                       : 2
  29. Format                                   : E-AC-3 JOC
  30. Format/Info                              : Enhanced AC-3 with Joint Object Coding
  31. Commercial name                          : Dolby Digital Plus with Dolby Atmos
  32. Codec ID                                 : ec-3
  33. Duration                                 : 2 h 35 min
  34. Bit rate mode                            : Constant
  35. Bit rate                                 : 768 kb/s
  36. Maximum bit rate                         : 811 kb/s
  37. Channel(s)                               : 6 channels
  38. Channel layout                           : L R C LFE Ls Rs
  39. Sampling rate                            : 48.0 kHz
  40. Frame rate                               : 31.250 FPS (1536 SPF)
  41. Compression mode                         : Lossy
  42. Stream size                              : 856 MiB (4%)
  43. Title                                    : English
  44. Language                                 : English
  45. Service kind                             : Complete Main
  46. Default                                  : Yes
  47. Alternate group                          : 1
  48. Tagged date                              : UTC 2022-01-13 21:16:35
  49. Complexity index                         : Not present / 16
  50. Number of dynamic objects                : 15
  51. Bed channel count                        : 1 channel
  52. Bed channel configuration                : LFE

  53. Text #1
  54. ID                                       : 3
  55. Format                                   : Timed Text
  56. Codec ID                                 : tx3g
  57. Duration                                 : 2 h 35 min
  58. Bit rate mode                            : Variable
  59. Bit rate                                 : 47 b/s
  60. Stream size                              : 53.1 KiB (0%)
  61. Title                                    : English
  62. Language                                 : English
  63. Forced                                   : No
  64. Encoded date                             : UTC 2022-01-13 21:16:31
  65. Tagged date                              : UTC 2022-01-13 21:16:35

  66. Text #2
  67. ID                                       : 4
  68. Format                                   : Timed Text
  69. Codec ID                                 : tx3g
  70. Duration                                 : 2 h 35 min
  71. Bit rate mode                            : Variable
  72. Bit rate                                 : 60 b/s
  73. Stream size                              : 68.8 KiB (0%)
  74. Title                                    : English
  75. Language                                 : English
  76. Forced                                   : No
  77. Encoded date                             : UTC 2022-01-13 21:16:31
  78. Tagged date                              : UTC 2022-01-13 21:16:35

  79. Text #3
  80. ID                                       : 5
  81. Format                                   : Timed Text
  82. Codec ID                                 : tx3g
  83. Duration                                 : 2 h 35 min
  84. Bit rate mode                            : Variable
  85. Bit rate                                 : 2 b/s
  86. Stream size                              : 2.09 KiB (0%)
  87. Title                                    : English
  88. Language                                 : English
  89. Forced                                   : No
  90. Encoded date                             : UTC 2022-01-13 21:16:31
  91. Tagged date                              : UTC 2022-01-13 21:16:35

  92. Text #4
  93. ID                                       : 6
  94. Format                                   : Timed Text
  95. Codec ID                                 : tx3g
  96. Duration                                 : 2 h 35 min
  97. Bit rate mode                            : Variable
  98. Bit rate                                 : 39 b/s
  99. Stream size                              : 44.0 KiB (0%)
  100. Title                                    : Chinese-Cantonese
  101. Language                                 : Chinese
  102. Forced                                   : No
  103. Encoded date                             : UTC 2022-01-13 21:16:31
  104. Tagged date                              : UTC 2022-01-13 21:16:35

  105. Text #5
  106. ID                                       : 7
  107. Format                                   : Timed Text
  108. Codec ID                                 : tx3g
  109. Duration                                 : 2 h 35 min
  110. Bit rate mode                            : Variable
  111. Bit rate                                 : 42 b/s
  112. Stream size                              : 48.0 KiB (0%)
  113. Title                                    : Chinese-Simplified
  114. Language                                 : Chinese
  115. Forced                                   : No
  116. Encoded date                             : UTC 2022-01-13 21:16:31
  117. Tagged date                              : UTC 2022-01-13 21:16:35

  118. Text #6
  119. ID                                       : 8
  120. Format                                   : Timed Text
  121. Codec ID                                 : tx3g
  122. Duration                                 : 2 h 35 min
  123. Bit rate mode                            : Variable
  124. Bit rate                                 : 41 b/s
  125. Stream size                              : 46.3 KiB (0%)
  126. Title                                    : Chinese-Traditional
  127. Language                                 : Chinese
  128. Forced                                   : No
  129. Encoded date                             : UTC 2022-01-13 21:16:31
  130. Tagged date                              : UTC 2022-01-13 21:16:35

  131. Text #7
  132. ID                                       : 9
  133. Format                                   : Timed Text
  134. Codec ID                                 : tx3g
  135. Duration                                 : 2 h 35 min
  136. Bit rate mode                            : Variable
  137. Bit rate                                 : 41 b/s
  138. Stream size                              : 46.2 KiB (0%)
  139. Title                                    : Danish
  140. Language                                 : Danish
  141. Forced                                   : No
  142. Encoded date                             : UTC 2022-01-13 21:16:32
  143. Tagged date                              : UTC 2022-01-13 21:16:35

  144. Text #8
  145. ID                                       : 10
  146. Format                                   : Timed Text
  147. Codec ID                                 : tx3g
  148. Duration                                 : 2 h 35 min
  149. Bit rate mode                            : Variable
  150. Bit rate                                 : 44 b/s
  151. Stream size                              : 49.8 KiB (0%)
  152. Title                                    : Dutch
  153. Language                                 : Dutch
  154. Forced                                   : No
  155. Encoded date                             : UTC 2022-01-13 21:16:32
  156. Tagged date                              : UTC 2022-01-13 21:16:35

  157. Text #9
  158. ID                                       : 11
  159. Format                                   : Timed Text
  160. Codec ID                                 : tx3g
  161. Duration                                 : 2 h 35 min
  162. Bit rate mode                            : Variable
  163. Bit rate                                 : 47 b/s
  164. Stream size                              : 53.9 KiB (0%)
  165. Title                                    : Finnish
  166. Language                                 : Finnish
  167. Forced                                   : No
  168. Encoded date                             : UTC 2022-01-13 21:16:32
  169. Tagged date                              : UTC 2022-01-13 21:16:35

  170. Text #10
  171. ID                                       : 12
  172. Format                                   : Timed Text
  173. Codec ID                                 : tx3g
  174. Duration                                 : 2 h 35 min
  175. Bit rate mode                            : Variable
  176. Bit rate                                 : 42 b/s
  177. Stream size                              : 48.4 KiB (0%)
  178. Title                                    : French
  179. Language                                 : French
  180. Forced                                   : No
  181. Encoded date                             : UTC 2022-01-13 21:16:32
  182. Tagged date                              : UTC 2022-01-13 21:16:35

  183. Text #11
  184. ID                                       : 13
  185. Format                                   : Timed Text
  186. Codec ID                                 : tx3g
  187. Duration                                 : 2 h 35 min
  188. Bit rate mode                            : Variable
  189. Bit rate                                 : 49 b/s
  190. Stream size                              : 56.4 KiB (0%)
  191. Title                                    : French-CA
  192. Language                                 : French
  193. Forced                                   : No
  194. Encoded date                             : UTC 2022-01-13 21:16:32
  195. Tagged date                              : UTC 2022-01-13 21:16:35

  196. Text #12
  197. ID                                       : 14
  198. Format                                   : Timed Text
  199. Codec ID                                 : tx3g
  200. Duration                                 : 2 h 35 min
  201. Bit rate mode                            : Variable
  202. Bit rate                                 : 42 b/s
  203. Stream size                              : 47.9 KiB (0%)
  204. Title                                    : German
  205. Language                                 : German
  206. Forced                                   : No
  207. Encoded date                             : UTC 2022-01-13 21:16:32
  208. Tagged date                              : UTC 2022-01-13 21:16:35

  209. Text #13
  210. ID                                       : 15
  211. Format                                   : Timed Text
  212. Codec ID                                 : tx3g
  213. Duration                                 : 2 h 35 min
  214. Bit rate mode                            : Variable
  215. Bit rate                                 : 47 b/s
  216. Stream size                              : 53.9 KiB (0%)
  217. Title                                    : Icelandic
  218. Language                                 : Icelandic
  219. Forced                                   : No
  220. Encoded date                             : UTC 2022-01-13 21:16:32
  221. Tagged date                              : UTC 2022-01-13 21:16:35

  222. Text #14
  223. ID                                       : 16
  224. Format                                   : Timed Text
  225. Codec ID                                 : tx3g
  226. Duration                                 : 2 h 35 min
  227. Bit rate mode                            : Variable
  228. Bit rate                                 : 47 b/s
  229. Stream size                              : 53.7 KiB (0%)
  230. Title                                    : Italian
  231. Language                                 : Italian
  232. Forced                                   : No
  233. Encoded date                             : UTC 2022-01-13 21:16:33
  234. Tagged date                              : UTC 2022-01-13 21:16:35

  235. Text #15
  236. ID                                       : 17
  237. Format                                   : Timed Text
  238. Codec ID                                 : tx3g
  239. Duration                                 : 2 h 35 min
  240. Bit rate mode                            : Variable
  241. Bit rate                                 : 41 b/s
  242. Stream size                              : 47.1 KiB (0%)
  243. Title                                    : Japanese
  244. Language                                 : Japanese
  245. Forced                                   : No
  246. Encoded date                             : UTC 2022-01-13 21:16:33
  247. Tagged date                              : UTC 2022-01-13 21:16:35

  248. Text #16
  249. ID                                       : 18
  250. Format                                   : Timed Text
  251. Codec ID                                 : tx3g
  252. Duration                                 : 2 h 35 min
  253. Bit rate mode                            : Variable
  254. Bit rate                                 : 49 b/s
  255. Stream size                              : 55.5 KiB (0%)
  256. Title                                    : Korean
  257. Language                                 : Korean
  258. Forced                                   : No
  259. Encoded date                             : UTC 2022-01-13 21:16:33
  260. Tagged date                              : UTC 2022-01-13 21:16:35

  261. Text #17
  262. ID                                       : 19
  263. Format                                   : Timed Text
  264. Codec ID                                 : tx3g
  265. Duration                                 : 2 h 35 min
  266. Bit rate mode                            : Variable
  267. Bit rate                                 : 43 b/s
  268. Stream size                              : 49.4 KiB (0%)
  269. Title                                    : Norwegian
  270. Language                                 : Norwegian
  271. Forced                                   : No
  272. Encoded date                             : UTC 2022-01-13 21:16:34
  273. Tagged date                              : UTC 2022-01-13 21:16:35

  274. Text #18
  275. ID                                       : 20
  276. Format                                   : Timed Text
  277. Codec ID                                 : tx3g
  278. Duration                                 : 2 h 35 min
  279. Bit rate mode                            : Variable
  280. Bit rate                                 : 43 b/s
  281. Stream size                              : 48.9 KiB (0%)
  282. Title                                    : Polish
  283. Language                                 : Polish
  284. Forced                                   : No
  285. Encoded date                             : UTC 2022-01-13 21:16:34
  286. Tagged date                              : UTC 2022-01-13 21:16:35

  287. Text #19
  288. ID                                       : 21
  289. Format                                   : Timed Text
  290. Codec ID                                 : tx3g
  291. Duration                                 : 2 h 35 min
  292. Bit rate mode                            : Variable
  293. Bit rate                                 : 46 b/s
  294. Stream size                              : 51.9 KiB (0%)
  295. Title                                    : Portuguese
  296. Language                                 : Portuguese
  297. Forced                                   : No
  298. Encoded date                             : UTC 2022-01-13 21:16:34
  299. Tagged date                              : UTC 2022-01-13 21:16:35

  300. Text #20
  301. ID                                       : 22
  302. Format                                   : Timed Text
  303. Codec ID                                 : tx3g
  304. Duration                                 : 2 h 35 min
  305. Bit rate mode                            : Variable
  306. Bit rate                                 : 46 b/s
  307. Stream size                              : 52.3 KiB (0%)
  308. Title                                    : Portuguese-BR
  309. Language                                 : Portuguese
  310. Forced                                   : No
  311. Encoded date                             : UTC 2022-01-13 21:16:34
  312. Tagged date                              : UTC 2022-01-13 21:16:35

  313. Text #21
  314. ID                                       : 23
  315. Format                                   : Timed Text
  316. Codec ID                                 : tx3g
  317. Duration                                 : 2 h 35 min
  318. Bit rate mode                            : Variable
  319. Bit rate                                 : 47 b/s
  320. Stream size                              : 53.6 KiB (0%)
  321. Title                                    : Spanish
  322. Language                                 : Spanish
  323. Forced                                   : No
  324. Encoded date                             : UTC 2022-01-13 21:16:34
  325. Tagged date                              : UTC 2022-01-13 21:16:35

  326. Text #22
  327. ID                                       : 24
  328. Format                                   : Timed Text
  329. Codec ID                                 : tx3g
  330. Duration                                 : 2 h 35 min
  331. Bit rate mode                            : Variable
  332. Bit rate                                 : 44 b/s
  333. Stream size                              : 50.6 KiB (0%)
  334. Title                                    : Spanish-EU
  335. Language                                 : Spanish
  336. Forced                                   : No
  337. Encoded date                             : UTC 2022-01-13 21:16:34
  338. Tagged date                              : UTC 2022-01-13 21:16:35

  339. Text #23
  340. ID                                       : 25
  341. Format                                   : Timed Text
  342. Codec ID                                 : tx3g
  343. Duration                                 : 2 h 35 min
  344. Bit rate mode                            : Variable
  345. Bit rate                                 : 43 b/s
  346. Stream size                              : 49.1 KiB (0%)
  347. Title                                    : Swedish
  348. Language                                 : Swedish
  349. Forced                                   : No
  350. Encoded date                             : UTC 2022-01-13 21:16:35
  351. Tagged date                              : UTC 2022-01-13 21:16:35
复制代码







                                       
                                       

                                       
                                       
                                       




回复

使用道具 举报

蓝光币
1
发表于 2022-1-14 13:10:32 | 显示全部楼层

楼主太厉害了!楼主,电影应该很好看我觉得蓝光电影网真是个好地方!
回复 支持 反对

使用道具 举报

蓝光币
31
发表于 2022-1-14 15:52:03 | 显示全部楼层
感谢分享 楼主辛苦了
回复 支持 反对

使用道具 举报

蓝光币
1
发表于 2022-1-15 10:34:40 | 显示全部楼层
楼主发贴辛苦了,谢谢楼主分享!我觉得蓝光电影网是注册对了!
回复 支持 反对

使用道具 举报

蓝光币
962
发表于 2022-1-15 23:02:39 | 显示全部楼层

楼主太厉害了!楼主,电影应该很好看我觉得蓝光电影网真是个好地方!
回复 支持 反对

使用道具 举报

懒得打字嘛,点击右侧快捷回复 【右侧内容,后台自定义】
您需要登录后才可以回帖 登录 | 立即加入

本版积分规则

Archiver|小黑屋| 蓝光电影网 |网站地图

Copyright © 2021 Comsenz Inc. Powered by 蓝光电影网

蓝光电影网

本站内容由用户自主分享和转载自互联网,转载目的在于传递更多信息,并不代表本网赞同其观点和对其真实性负责。

如有侵权、违反国家法律政策行为,请联系我们,我们会第一时间及时清除和处理!

举报反馈邮箱:[email protected]

快速回复 返回顶部 返回列表