找回密码

蓝光电影网

查看: 469|回复: 0

[1981][狐狸与猎 狗The.Fox.and.the.Hound.1981.1080p.BluRay.x264.DTS-FGT-10.74G

[复制链接]
蓝光币
382
发表于 2015-9-12 18:53:38 | 显示全部楼层 |阅读模式



[1981][美国][动画][狐狸与猎 狗The.Fox.and.the.Hound.1981.1080p.BluRay.x264.DTS-FGT][1080P-10.74G][MKV]DTS
231429hzae5imi51alwbiv.jpg

◎影片根基信息
巨细: 10.74G
清楚度: 1080P
视频: MKV
豆瓣评分: 8.2
导演: Art Stevens / Richard Rich / Ted Berman
编剧: Burny Mattinson / Daniel P. Mannix / David Michener
主演: 米基·鲁尼 / 库尔特·拉塞尔 / 珀尔·贝利 / 杰克·艾伯森 / Sandy Duncan / 更多...
范例: 动画 / 家庭 / 冒险
制片国家/地域: 美国
说话: 英语
上映日期: 1981-07-10(美国)
片长: 83 分钟
影片: The.Fox.and.the.Hound.1981.1080p.BluRay.x264.DTS-FGT

◎剧情简介
       小狐狸陶德(米基·鲁尼 Mickey Rooney 配音)刚诞生未几,母亲就被猎人杀戮了。荣幸的是他被一位老太婆(珀尔·贝利 Pearl Bailey 配音)收养。陶德自幼最好的朋友是一只**小铜(库尔特·拉塞尔 Kurt Russell 配音),一路游玩顽耍,童年在无忧无虑中度过了。小铜的仆人是一个猎人,每年冬季都要带**去山里狩猎,随着小铜长大,猎人感觉是时辰带他去山里锻炼了。春季到了,经过了一个冬季,陶德与小铜都长大了,也晓得相互是天敌的命运,他们的友谊渐渐出现危机。淘德在一次外出中,照顾小铜的老狗老迈在追逐陶德的时辰,意外的被火车撞伤,生命弥留。因而猎人就带着小铜追捕淘德。昔日两个好朋友之间的斗争不成避免。小铜步步紧逼出逃的淘德,不想它们遭碰到了熊,淘德原本可以借此机遇摆脱小铜的追捕,但危机关头,陶德将会若何决定……
-------------------------

  1. Video
  2. ID                                       : 1
  3. Format                                   : AVC
  4. Format/Info                              : Advanced Video Codec
  5. Format profile                           : [email protected]
  6. Format settings, CABAC                   : Yes
  7. Format settings, ReFrames                : 4 frames
  8. Codec ID                                 : V_MPEG4/ISO/AVC
  9. Duration                                 : 1h 22mn
  10. Bit rate                                 : 16.7 Mbps
  11. Width                                    : 1 800 pixels
  12. Height                                   : 1 080 pixels
  13. Display aspect ratio                     : 1.667
  14. Frame rate mode                          : Constant
  15. Frame rate                               : 23.976 fps
  16. Color space                              : YUV
  17. Chroma subsampling                       : 4:2:0
  18. Bit depth                                : 8 bits
  19. Scan type                                : Progressive
  20. Bits/(Pixel*Frame)                       : 0.358
  21. Stream size                              : 9.65 GiB (90%)
  22. Writing library                          : x264 core 116 r2057 0ba8a9c
  23. Encoding settings                        : cabac=1 / ref=4 / deblock=1:-3:-3 / analyse=0x3:0x113 / me=tesa / subme=11 / psy=1 / psy_rd=1.00:0.00 / mixed_ref=1 / me_range=16 / chroma_me=1 / trellis=2 / 8x8dct=1 / cqm=0 / deadzone=21,11 / fast_pskip=0 / chroma_qp_offset=-2 / threads=12 / sliced_threads=0 / nr=0 / decimate=0 / interlaced=0 / bluray_compat=0 / constrained_intra=0 / bframes=7 / b_pyramid=2 / b_adapt=2 / b_bias=0 / direct=3 / weightb=1 / open_gop=0 / weightp=2 / keyint=250 / keyint_min=23 / scenecut=40 / intra_refresh=0 / rc=crf / mbtree=0 / crf=17.5 / qcomp=0.60 / qpmin=0 / qpmax=69 / qpstep=4 / ip_ratio=1.40 / pb_ratio=1.30 / aq=1:0.75
  24. Language                                 : English
  25. Default                                  : Yes
  26. Forced                                   : No
  27. Matrix coefficients                      : BT.709
  28. Color range                              : Limited

  29. Audio
  30. ID                                       : 2
  31. Format                                   : DTS
  32. Format/Info                              : Digital Theater Systems
  33. Mode                                     : 16
  34. Format settings, Endianness              : Big
  35. Codec ID                                 : A_DTS
  36. Duration                                 : 1h 22mn
  37. Bit rate mode                            : Constant
  38. Bit rate                                 : 1 509 Kbps
  39. Channel(s)                               : 6 channels
  40. Channel positions                        : Front: L C R, Side: L R, LFE
  41. Sampling rate                            : 48.0 KHz
  42. Bit depth                                : 24 bits
  43. Compression mode                         : Lossy
  44. Delay relative to video                  : 22ms
  45. Stream size                              : 895 MiB (8%)
  46. Language                                 : English
  47. Default                                  : Yes
  48. Forced                                   : No
复制代码

复制代码

-------------------------
◎出色剧照
231426gkgmgl0de8q9lewf.jpg
231426brtpp23tmrgyg7rp.jpg
231427bwclhfhchowzvrb8.jpg
231428fz7300fy5yg03y0g.jpg

-------------------------
[以上高清电影剧照来自互联网,不代表此片高清剧照]
慎重声明:本站供给的一切高清电影作品均是在网上汇集,任何触及贸易盈利目标均不得利用,否则发生的一切结果将由您自己承当!本站将差池本站的任何内容负任何法令义务!该下载内容仅做宽带测试利用,请鄙人载后24小时内删除。请采办正
版!
-------------------------
◎种子下载地址
旅客,假如您要检察本帖隐藏内容请答复
回复

使用道具 举报

懒得打字嘛,点击右侧快捷回复 【右侧内容,后台自定义】
您需要登录后才可以回帖 登录 | 立即加入

本版积分规则

Archiver|小黑屋| 蓝光电影网 |网站地图

Copyright © 2021 Comsenz Inc. Powered by 蓝光电影网

蓝光电影网

本站内容由用户自主分享和转载自互联网,转载目的在于传递更多信息,并不代表本网赞同其观点和对其真实性负责。

如有侵权、违反国家法律政策行为,请联系我们,我们会第一时间及时清除和处理!

举报反馈邮箱:[email protected]

快速回复 返回顶部 返回列表