找回密码

蓝光电影网

查看: 615|回复: 1

[2015][喜剧][香港][神探驾到/神探到访/玻璃侦探][REMUX][1080P-19.19G][MKV]TrueHD5.1

[复制链接]
蓝光币
382
发表于 2015-9-12 18:55:02 | 显示全部楼层 |阅读模式

[2015][笑剧][香港][神探驾到/神探到访/玻璃侦察][REMUX][1080P-19.19G][MKV]TrueHD5.1
233632qx1x8lex22o68e6t.jpg

◎影片根基信息
巨细: 19.19G
清楚度: 1080P
视频: MKV
豆瓣评分: 3.9
导演: 黄百鸣 / 邱礼涛
编剧: 黄子桓
主演: 古天乐 / 张翰 / 曾志伟 / 毛舜筠 / 柳岩 / 更多...
范例: 笑剧 / 恋爱 / 悬疑 / 奇异
制片国家/地域: 香港 / 中国大陆
说话: 汉语普通话 / 粤语
上映日期: 2015-02-06(中国大陆) / 2015-02-19(香港)
片长: 103分钟
别名: 神探到访 / 玻璃侦察 / An Inspector Calls
影片: An.Inspector.Calls.2015.1080p.BluRay.REMUX.AVC.TrueHD.5.1-RARBG

◎剧情简介
       社会上甚有职位的裘氏一族正预备驱逐一场盛大的订婚派对,一位不速之客贾捕快(古天乐 饰)却忽然到访,并带来少女张小娟一尸两命的自杀命案,划破了裘家欢乐的氛围。裘家上至老爷(曾志伟 饰)太太(毛舜筠 饰)少爷(林家栋 饰)**(吴千语 饰),下至管家(罗兰 饰)均暗示从不熟悉张小娟,岂料贾捕快竟凭着死者的一本日志和一张照片,将裘家众人的富丽皮囊逐一扯下,揭暴露每人都跟死者有着莫大的关连!
  一场富丽的世纪夜宴如期举行,一片欢乐下,这名捕快的到访,会完全影响裘家的世纪盛宴吗?
  电影改编自英国着名舞台剧《An Inspector Calls》。
-------------------------

  1. Video
  2. ID                                       : 1
  3. Format                                   : AVC
  4. Format/Info                              : Advanced Video Codec
  5. Format profile                           : [email protected]
  6. Format settings, CABAC                   : Yes
  7. Format settings, ReFrames                : 4 frames
  8. Codec ID                                 : V_MPEG4/ISO/AVC
  9. Duration                                 : 1h 26mn
  10. Bit rate mode                            : Variable
  11. Maximum bit rate                         : 34.0 Mbps
  12. Width                                    : 1 920 pixels
  13. Height                                   : 1 080 pixels
  14. Display aspect ratio                     : 16:9
  15. Frame rate mode                          : Constant
  16. Frame rate                               : 24.000 fps
  17. Standard                                 : NTSC
  18. Color space                              : YUV
  19. Chroma subsampling                       : 4:2:0
  20. Bit depth                                : 8 bits
  21. Scan type                                : Progressive
  22. Title                                    : An.Inspector.Calls.2015.1080p.BluRay.REMUX.AVC.TrueHD.5.1-RARBG
  23. Language                                 : English
  24. Default                                  : No
  25. Forced                                   : No
  26. Color primaries                          : BT.709
  27. Transfer characteristics                 : BT.709
  28. Matrix coefficients                      : BT.709
  29. Color range                              : Limited

  30. Audio #1
  31. ID                                       : 2
  32. Format                                   : TrueHD
  33. Codec ID                                 : A_TRUEHD
  34. Duration                                 : 1h 26mn
  35. Bit rate mode                            : Variable
  36. Maximum bit rate                         : 5 010 Kbps
  37. Channel(s)                               : 6 channels
  38. Channel positions                        : Front: L C R, Side: L R, LFE
  39. Sampling rate                            : 96.0 KHz
  40. Bit depth                                : 24 bits
  41. Compression mode                         : Lossless
  42. Title                                    : An.Inspector.Calls.2015.1080p.BluRay.REMUX.AVC.TrueHD.5.1-RARBG
  43. Language                                 : Chinese
  44. Default                                  : Yes
  45. Forced                                   : No

  46. Audio #2
  47. ID                                       : 3
  48. Format                                   : AC-3
  49. Format/Info                              : Audio Coding 3
  50. Mode extension                           : CM (complete main)
  51. Format settings, Endianness              : Big
  52. Codec ID                                 : A_AC3
  53. Duration                                 : 1h 26mn
  54. Bit rate mode                            : Constant
  55. Bit rate                                 : 640 Kbps
  56. Channel(s)                               : 6 channels
  57. Channel positions                        : Front: L C R, Side: L R, LFE
  58. Sampling rate                            : 48.0 KHz
  59. Bit depth                                : 16 bits
  60. Compression mode                         : Lossy
  61. Stream size                              : 398 MiB (2%)
  62. Title                                    : An.Inspector.Calls.2015.1080p.BluRay.REMUX.AVC.TrueHD.5.1-RARBG
  63. Language                                 : Chinese
  64. Default                                  : No
  65. Forced                                   : No

  66. Audio #3
  67. ID                                       : 4
  68. Format                                   : TrueHD
  69. Codec ID                                 : A_TRUEHD
  70. Duration                                 : 1h 26mn
  71. Bit rate mode                            : Variable
  72. Maximum bit rate                         : 4 992 Kbps
  73. Channel(s)                               : 6 channels
  74. Channel positions                        : Front: L C R, Side: L R, LFE
  75. Sampling rate                            : 96.0 KHz
  76. Bit depth                                : 24 bits
  77. Compression mode                         : Lossless
  78. Title                                    : An.Inspector.Calls.2015.1080p.BluRay.REMUX.AVC.TrueHD.5.1-RARBG
  79. Language                                 : Chinese
  80. Default                                  : No
  81. Forced                                   : No

  82. Audio #4
  83. ID                                       : 5
  84. Format                                   : AC-3
  85. Format/Info                              : Audio Coding 3
  86. Mode extension                           : CM (complete main)
  87. Format settings, Endianness              : Big
  88. Codec ID                                 : A_AC3
  89. Duration                                 : 1h 26mn
  90. Bit rate mode                            : Constant
  91. Bit rate                                 : 640 Kbps
  92. Channel(s)                               : 6 channels
  93. Channel positions                        : Front: L C R, Side: L R, LFE
  94. Sampling rate                            : 48.0 KHz
  95. Bit depth                                : 16 bits
  96. Compression mode                         : Lossy
  97. Stream size                              : 398 MiB (2%)
  98. Title                                    : An.Inspector.Calls.2015.1080p.BluRay.REMUX.AVC.TrueHD.5.1-RARBG
  99. Language                                 : Chinese
  100. Default                                  : No
  101. Forced                                   : No

  102. Text #1
  103. ID                                       : 6
  104. Format                                   : PGS
  105. Muxing mode                              : zlib
  106. Codec ID                                 : S_HDMV/PGS
  107. Codec ID/Info                            : The same subtitle format used on BDs/HD-DVDs
  108. Language                                 : English
  109. Default                                  : Yes
  110. Forced                                   : Yes

  111. Text #2
  112. ID                                       : 7
  113. Format                                   : PGS
  114. Muxing mode                              : zlib
  115. Codec ID                                 : S_HDMV/PGS
  116. Codec ID/Info                            : The same subtitle format used on BDs/HD-DVDs
  117. Language                                 : Chinese
  118. Default                                  : No
  119. Forced                                   : No

  120. Text #3
  121. ID                                       : 8
  122. Format                                   : PGS
  123. Muxing mode                              : zlib
  124. Codec ID                                 : S_HDMV/PGS
  125. Codec ID/Info                            : The same subtitle format used on BDs/HD-DVDs
  126. Language                                 : Chinese
  127. Default                                  : No
  128. Forced                                   : No

  129. Text #4
  130. ID                                       : 9
  131. Format                                   : PGS
  132. Muxing mode                              : zlib
  133. Codec ID                                 : S_HDMV/PGS
  134. Codec ID/Info                            : The same subtitle format used on BDs/HD-DVDs
  135. Language                                 : Chinese
  136. Default                                  : No
  137. Forced                                   : No

  138. Text #5
  139. ID                                       : 10
  140. Format                                   : PGS
  141. Muxing mode                              : zlib
  142. Codec ID                                 : S_HDMV/PGS
  143. Codec ID/Info                            : The same subtitle format used on BDs/HD-DVDs
  144. Language                                 : Chinese
  145. Default                                  : No
  146. Forced                                   : No

  147. Text #6
  148. ID                                       : 11
  149. Format                                   : PGS
  150. Muxing mode                              : zlib
  151. Codec ID                                 : S_HDMV/PGS
  152. Codec ID/Info                            : The same subtitle format used on BDs/HD-DVDs
  153. Language                                 : English
  154. Default                                  : No
  155. Forced                                   : No

  156. Menu
  157. 00:00:00.000                             : en:Chapter 01
  158. 00:07:12.541                             : en:Chapter 02
  159. 00:14:26.416                             : en:Chapter 03
  160. 00:23:27.000                             : en:Chapter 04
  161. 00:29:51.166                             : en:Chapter 05
  162. 00:37:35.166                             : en:Chapter 06
  163. 00:47:18.541                             : en:Chapter 07
  164. 00:51:17.625                             : en:Chapter 08
  165. 00:58:40.625                             : en:Chapter 09
  166. 01:02:59.708                             : en:Chapter 10
  167. 01:13:37.750                             : en:Chapter 11
  168. 01:19:41.875                             : en:Chapter 12
复制代码

复制代码

-------------------------
◎出色剧照
233605oh96pd0swfrs19zu.jpg
233606qma2h2tazasjxvnx.jpg
233604yoo6va1rdvvjr3tz.jpg
233602ge54ig554toxzc4p.jpg

-------------------------
[以上高清电影剧照来自互联网,不代表此片高清剧照]
慎重声明:本站供给的一切高清电影作品均是在网上汇集,任何触及贸易盈利目标均不得利用,否则发生的一切结果将由您自己承当!本站将差池本站的任何内容负任何法令义务!该下载内容仅做宽带测试利用,请鄙人载后24小时内删除。请采办正
版!
-------------------------
◎种子下载地址
旅客,假如您要检察本帖隐藏内容请答复
回复

使用道具 举报

懒得打字嘛,点击右侧快捷回复 【右侧内容,后台自定义】
您需要登录后才可以回帖 登录 | 立即加入

本版积分规则

Archiver|小黑屋| 蓝光电影网 |网站地图

Copyright © 2021 Comsenz Inc. Powered by 蓝光电影网

蓝光电影网

本站内容由用户自主分享和转载自互联网,转载目的在于传递更多信息,并不代表本网赞同其观点和对其真实性负责。

如有侵权、违反国家法律政策行为,请联系我们,我们会第一时间及时清除和处理!

举报反馈邮箱:[email protected]

快速回复 返回顶部 返回列表