找回密码

蓝光电影网

查看: 587|回复: 0

[2014][美国][犯罪][固有缺陷/性本恶/本性难移][REMUX][1080P-32.97G][MKV]DTS

[复制链接]
蓝光币
386
发表于 2015-9-12 19:05:49 | 显示全部楼层 |阅读模式

[2014][美国][犯罪][固有缺点/性本恶/赋性难移][REMUX][1080P-32.97G][MKV]DTS
112806g9yrrymaam9r1xy8.jpg

◎影片根基信息
巨细: 32.97G
清楚度: 1080P
视频: MKV
豆瓣评分: 6.7
导演: 保罗·托马斯·安德森
编剧: 保罗·托马斯·安德森 / 托马斯·品钦
主演: 杰昆·菲尼克斯 / 乔什·布洛林 / 欧文·威尔逊 / 瑞茜·威瑟斯彭 / 本尼西奥·德尔·托罗 / 更多...
范例: 剧情 / 笑剧 / 犯罪
制片国家/地域: 美国
说话: 英语 / 日语
上映日期: 2014-10-04(纽约电影节) / 2015-01-09(美国)
片长: 148分钟
别名: 赋性难移 / 固有缺点
影片: Inherent.Vice.2014.1080p.BluRay.REMUX.AVC.DTS-HD.MA.5.1-RARBG

◎剧情简介
       早在2010年的12月,安德森就成心改编托马斯·品钦的《性本恶》,不外由于另一部新片《大师》的资金到位较早,《性本恶》临时被弃捐了起来。《性本恶》有一个类似钱德勒侦察小说的外壳,洛杉矶私人侦察多克与前女友莎斯塔萍水重逢,并从她那听说了一个无从佐**的故事,一桩古怪绑架案,受害者——她现在的情人——是一个“腰缠亿贯”的房地产商。多克明晓得“恋爱”是个含糊不清、随时会惹出一串麻烦的词儿,还是鬼使神差地撞进了莎斯塔的故事,而且愈卷愈深,冲浪手、皮条客、贩毒者、摇滚乐手、犯了命案的高利贷者,各色人等,若隐若现……

◎获奖情况

  第87届奥斯卡金像奖 (2015)
  最好改编剧本(提名) 保罗·托马斯·安德森
  最好打扮设想(提名)

  第72届金球奖 (2015)
  电影类 音乐/笑剧片最好男配角(提名) 杰昆·菲尼克斯

  第30届自力精神奖 (2015)
  罗伯特·奥特曼电影奖(提名) 凯瑟琳·沃特斯顿 / 欧文·威尔逊 / 乔安娜·纽桑 / 杰昆·菲尼克斯 / 迈克尔·威廉姆斯 / Cassandra Kulukundis / 埃里克·罗伯茨 / 本尼西奥·德尔·托罗 / 马丁·唐文 / 瑞茜·威瑟斯彭 / 保罗·托马斯·安德森 / 吉娜·马隆 / Serena Scott Thomas / 乔什·布洛林 / 马丁·肖特 / 玛娅·鲁道夫
-------------------------

  1. Video
  2. ID                                       : 1
  3. Format                                   : AVC
  4. Format/Info                              : Advanced Video Codec
  5. Format profile                           : [email protected]
  6. Format settings, CABAC                   : Yes
  7. Format settings, ReFrames                : 2 frames
  8. Codec ID                                 : V_MPEG4/ISO/AVC
  9. Duration                                 : 2h 28mn
  10. Bit rate mode                            : Variable
  11. Width                                    : 1 920 pixels
  12. Height                                   : 1 080 pixels
  13. Display aspect ratio                     : 16:9
  14. Frame rate mode                          : Constant
  15. Frame rate                               : 23.976 fps
  16. Color space                              : YUV
  17. Chroma subsampling                       : 4:2:0
  18. Bit depth                                : 8 bits
  19. Scan type                                : Progressive
  20. Title                                    : Inherent.Vice.2014.1080p.BluRay.REMUX.AVC.DTS-HD.MA.5.1-RARBG
  21. Language                                 : English
  22. Default                                  : No
  23. Forced                                   : No

  24. Audio #1
  25. ID                                       : 2
  26. Format                                   : DTS
  27. Format/Info                              : Digital Theater Systems
  28. Format profile                           : MA / Core
  29. Mode                                     : 16
  30. Format settings, Endianness              : Big
  31. Codec ID                                 : A_DTS
  32. Duration                                 : 2h 28mn
  33. Bit rate mode                            : Variable
  34. Bit rate                                 : Unknown / 1 509 Kbps
  35. Channel(s)                               : 6 channels
  36. Channel positions                        : Front: L C R, Side: L R, LFE
  37. Sampling rate                            : 48.0 KHz
  38. Bit depth                                : 24 bits
  39. Compression mode                         : Lossless / Lossy
  40. Title                                    : Inherent.Vice.2014.1080p.BluRay.REMUX.AVC.DTS-HD.MA.5.1-RARBG
  41. Language                                 : English
  42. Default                                  : Yes
  43. Forced                                   : No

  44. Audio #2
  45. ID                                       : 3
  46. Format                                   : DTS
  47. Format/Info                              : Digital Theater Systems
  48. Mode                                     : 16
  49. Format settings, Endianness              : Big
  50. Codec ID                                 : A_DTS
  51. Duration                                 : 2h 28mn
  52. Bit rate mode                            : Constant
  53. Bit rate                                 : 1 509 Kbps
  54. Channel(s)                               : 6 channels
  55. Channel positions                        : Front: L C R, Side: L R, LFE
  56. Sampling rate                            : 48.0 KHz
  57. Bit depth                                : 24 bits
  58. Compression mode                         : Lossy
  59. Stream size                              : 1.57 GiB (5%)
  60. Title                                    : Inherent.Vice.2014.1080p.BluRay.REMUX.AVC.DTS-HD.MA.5.1-RARBG
  61. Language                                 : English
  62. Default                                  : No
  63. Forced                                   : No

  64. Audio #3
  65. ID                                       : 4
  66. Format                                   : AC-3
  67. Format/Info                              : Audio Coding 3
  68. Mode extension                           : CM (complete main)
  69. Format settings, Endianness              : Big
  70. Codec ID                                 : A_AC3
  71. Duration                                 : 2h 28mn
  72. Bit rate mode                            : Constant
  73. Bit rate                                 : 640 Kbps
  74. Channel(s)                               : 6 channels
  75. Channel positions                        : Front: L C R, Side: L R, LFE
  76. Sampling rate                            : 48.0 KHz
  77. Bit depth                                : 16 bits
  78. Compression mode                         : Lossy
  79. Stream size                              : 681 MiB (2%)
  80. Title                                    : Inherent.Vice.2014.1080p.BluRay.REMUX.AVC.DTS-HD.MA.5.1-RARBG
  81. Language                                 : French
  82. Default                                  : No
  83. Forced                                   : No

  84. Audio #4
  85. ID                                       : 5
  86. Format                                   : AC-3
  87. Format/Info                              : Audio Coding 3
  88. Mode extension                           : CM (complete main)
  89. Format settings, Endianness              : Big
  90. Codec ID                                 : A_AC3
  91. Duration                                 : 2h 28mn
  92. Bit rate mode                            : Constant
  93. Bit rate                                 : 640 Kbps
  94. Channel(s)                               : 6 channels
  95. Channel positions                        : Front: L C R, Side: L R, LFE
  96. Sampling rate                            : 48.0 KHz
  97. Bit depth                                : 16 bits
  98. Compression mode                         : Lossy
  99. Stream size                              : 681 MiB (2%)
  100. Title                                    : Inherent.Vice.2014.1080p.BluRay.REMUX.AVC.DTS-HD.MA.5.1-RARBG
  101. Language                                 : Spanish
  102. Default                                  : No
  103. Forced                                   : No

  104. Audio #5
  105. ID                                       : 6
  106. Format                                   : AC-3
  107. Format/Info                              : Audio Coding 3
  108. Mode extension                           : CM (complete main)
  109. Format settings, Endianness              : Big
  110. Codec ID                                 : A_AC3
  111. Duration                                 : 2h 28mn
  112. Bit rate mode                            : Constant
  113. Bit rate                                 : 640 Kbps
  114. Channel(s)                               : 6 channels
  115. Channel positions                        : Front: L C R, Side: L R, LFE
  116. Sampling rate                            : 48.0 KHz
  117. Bit depth                                : 16 bits
  118. Compression mode                         : Lossy
  119. Stream size                              : 681 MiB (2%)
  120. Title                                    : Inherent.Vice.2014.1080p.BluRay.REMUX.AVC.DTS-HD.MA.5.1-RARBG
  121. Language                                 : Portuguese
  122. Default                                  : No
  123. Forced                                   : No
复制代码

复制代码

-------------------------
◎出色剧照
112744lnr0lrv0r07eexja.jpg
112747bst0zb7jq0bt7kzq.jpg
112750fdlr1y7r7dlyt2wr.jpg
112753uqzze77e1bh1wh11.jpg

-------------------------
[以上高清电影剧照来自互联网,不代表此片高清剧照]
慎重声明:本站供给的一切高清电影作品均是在网上汇集,任何触及贸易盈利目标均不得利用,否则发生的一切结果将由您自己承当!本站将差池本站的任何内容负任何法令义务!该下载内容仅做宽带测试利用,请鄙人载后24小时内删除。请采办正
版!
-------------------------
◎种子下载地址
旅客,假如您要检察本帖隐藏内容请答复
回复

使用道具 举报

懒得打字嘛,点击右侧快捷回复 【右侧内容,后台自定义】
您需要登录后才可以回帖 登录 | 立即加入

本版积分规则

Archiver|小黑屋| 蓝光电影网 |网站地图

Copyright © 2021 Comsenz Inc. Powered by 蓝光电影网

蓝光电影网

本站内容由用户自主分享和转载自互联网,转载目的在于传递更多信息,并不代表本网赞同其观点和对其真实性负责。

如有侵权、违反国家法律政策行为,请联系我们,我们会第一时间及时清除和处理!

举报反馈邮箱:[email protected]

快速回复 返回顶部 返回列表