找回密码

蓝光电影网

查看: 622|回复: 0

[2014][美国][喜剧/爱情][爱情碎片/泰然处之][1080P-22.61G][MKV]TrueHD5.1

[复制链接]
蓝光币
382
发表于 2015-9-12 22:22:58 | 显示全部楼层 |阅读模式

[2014][美国][笑剧/恋爱][恋爱碎片/泰然自若][1080P-22.61G][MKV]TrueHD5.1
140010gdh2n030ceewq0dx.jpg

◎影片根基信息
巨细: 22.61G
清楚度: 1080P
视频: MKV
豆瓣评分: 6.0
导演: Justin Reardon
编剧: Paul Vicknair / Chris Shafer
主演: 克里斯·埃文斯 / 米歇尔·莫娜汉 / 奥布瑞·普拉扎 / 托弗·戈瑞斯 / 马丁·斯塔尔 / 更多...
范例: 笑剧 / 恋爱
制片国家/地域: 美国
说话: 英语
上映日期: 2014
片长: 94分钟
别名: A Many Splintered Thing
影片: Playing.It.Cool.2014.1080p.BluRay.REMUX.AVC.TrueHD.5.1-RARBG

◎剧情简介
       “美队”饰演的男配角豪情受挫萎靡不振,不再相信恋爱。可是在一次慈善晚会上他假装一个慈善家列席,却意外碰到了让他怦然心动的女配角,不巧的是人家已经订婚。为了赢得芳心,男配角假装只是普通朋友跟对方交往,固然求爱进程中也少不了损友帮手,损友之一即是他在《美国队长2》里的好**“猎鹰”,在预告片里,看他俩拌嘴逗比,一瞬间还真有点出戏。
  本片是克里斯·埃文斯在《床伴逐一数》以后,再度担纲恋爱笑剧男配角,他的脚色照旧是有些狡徒的高帅富。在把妹进程中,做了很多愣头小子的“蠢事”,上演了各种使人捧腹的乌龙故事。
-------------------------

  1. Video
  2. ID                                       : 1
  3. Format                                   : AVC
  4. Format/Info                              : Advanced Video Codec
  5. Format profile                           : [email protected]
  6. Format settings, CABAC                   : Yes
  7. Format settings, ReFrames                : 4 frames
  8. Codec ID                                 : V_MPEG4/ISO/AVC
  9. Duration                                 : 1h 34mn
  10. Bit rate mode                            : Variable
  11. Maximum bit rate                         : 35.0 Mbps
  12. Width                                    : 1 920 pixels
  13. Height                                   : 1 080 pixels
  14. Display aspect ratio                     : 16:9
  15. Frame rate mode                          : Constant
  16. Frame rate                               : 23.976 fps
  17. Standard                                 : NTSC
  18. Color space                              : YUV
  19. Chroma subsampling                       : 4:2:0
  20. Bit depth                                : 8 bits
  21. Scan type                                : Progressive
  22. Title                                    : Playing.It.Cool.2014.1080p.BluRay.REMUX.AVC.TrueHD.5.1-RARBG
  23. Language                                 : English
  24. Default                                  : No
  25. Forced                                   : No
  26. Color primaries                          : BT.709
  27. Transfer characteristics                 : BT.709
  28. Matrix coefficients                      : BT.709
  29. Color range                              : Limited

  30. Audio #1
  31. ID                                       : 2
  32. Format                                   : TrueHD
  33. Codec ID                                 : A_TRUEHD
  34. Duration                                 : 1h 34mn
  35. Bit rate mode                            : Variable
  36. Maximum bit rate                         : 2 538 Kbps
  37. Channel(s)                               : 6 channels
  38. Channel positions                        : Front: L C R, Side: L R, LFE
  39. Sampling rate                            : 48.0 KHz
  40. Bit depth                                : 24 bits
  41. Compression mode                         : Lossless
  42. Title                                    : Playing.It.Cool.2014.1080p.BluRay.REMUX.AVC.TrueHD.5.1-RARBG
  43. Language                                 : English
  44. Default                                  : Yes
  45. Forced                                   : No

  46. Audio #2
  47. ID                                       : 3
  48. Format                                   : AC-3
  49. Format/Info                              : Audio Coding 3
  50. Mode extension                           : CM (complete main)
  51. Format settings, Endianness              : Big
  52. Codec ID                                 : A_AC3
  53. Duration                                 : 1h 34mn
  54. Bit rate mode                            : Constant
  55. Bit rate                                 : 640 Kbps
  56. Channel(s)                               : 6 channels
  57. Channel positions                        : Front: L C R, Side: L R, LFE
  58. Sampling rate                            : 48.0 KHz
  59. Bit depth                                : 16 bits
  60. Compression mode                         : Lossy
  61. Stream size                              : 434 MiB (2%)
  62. Title                                    : Playing.It.Cool.2014.1080p.BluRay.REMUX.AVC.TrueHD.5.1-RARBG
  63. Language                                 : English
  64. Default                                  : No
  65. Forced                                   : No

  66. Audio #3
  67. ID                                       : 4
  68. Format                                   : TrueHD
  69. Codec ID                                 : A_TRUEHD
  70. Duration                                 : 1h 34mn
  71. Bit rate mode                            : Variable
  72. Maximum bit rate                         : 2 775 Kbps
  73. Channel(s)                               : 6 channels
  74. Channel positions                        : Front: L C R, Side: L R, LFE
  75. Sampling rate                            : 48.0 KHz
  76. Bit depth                                : 24 bits
  77. Compression mode                         : Lossless
  78. Title                                    : Playing.It.Cool.2014.1080p.BluRay.REMUX.AVC.TrueHD.5.1-RARBG
  79. Language                                 : French
  80. Default                                  : No
  81. Forced                                   : No

  82. Audio #4
  83. ID                                       : 5
  84. Format                                   : AC-3
  85. Format/Info                              : Audio Coding 3
  86. Mode extension                           : CM (complete main)
  87. Format settings, Endianness              : Big
  88. Codec ID                                 : A_AC3
  89. Duration                                 : 1h 34mn
  90. Bit rate mode                            : Constant
  91. Bit rate                                 : 640 Kbps
  92. Channel(s)                               : 6 channels
  93. Channel positions                        : Front: L C R, Side: L R, LFE
  94. Sampling rate                            : 48.0 KHz
  95. Bit depth                                : 16 bits
  96. Compression mode                         : Lossy
  97. Stream size                              : 434 MiB (2%)
  98. Title                                    : Playing.It.Cool.2014.1080p.BluRay.REMUX.AVC.TrueHD.5.1-RARBG
  99. Language                                 : French
  100. Default                                  : No
  101. Forced                                   : No

  102. Text #1
  103. ID                                       : 6
  104. Format                                   : PGS
  105. Muxing mode                              : zlib
  106. Codec ID                                 : S_HDMV/PGS
  107. Codec ID/Info                            : The same subtitle format used on BDs/HD-DVDs
  108. Language                                 : English
  109. Default                                  : No
  110. Forced                                   : No

  111. Text #2
  112. ID                                       : 7
  113. Format                                   : PGS
  114. Muxing mode                              : zlib
  115. Codec ID                                 : S_HDMV/PGS
  116. Codec ID/Info                            : The same subtitle format used on BDs/HD-DVDs
  117. Language                                 : French
  118. Default                                  : No
  119. Forced                                   : No

  120. Text #3
  121. ID                                       : 8
  122. Format                                   : PGS
  123. Muxing mode                              : zlib
  124. Codec ID                                 : S_HDMV/PGS
  125. Codec ID/Info                            : The same subtitle format used on BDs/HD-DVDs
  126. Language                                 : French
  127. Default                                  : No
  128. Forced                                   : No

  129. Menu
  130. 00:00:00.000                             : en:Chapter 01
  131. 00:13:34.230                             : en:Chapter 02
  132. 00:26:21.162                             : en:Chapter 03
  133. 00:41:23.063                             : en:Chapter 04
  134. 00:58:08.359                             : en:Chapter 05
  135. 01:09:03.264                             : en:Chapter 06
  136. 01:19:51.203                             : en:Chapter 07
  137. 01:28:57.332                             : en:Chapter 08
复制代码

复制代码

-------------------------
◎出色剧照
140003j5ijesxi770mmws5.jpg
140005zbnab9lxgk5li992.jpg
140006mhiqsq9andyhjgks.jpg
140007w09n7707jp3py49v.jpg

-------------------------
[以上高清电影剧照来自互联网,不代表此片高清剧照]
慎重声明:本站供给的一切高清电影作品均是在网上汇集,任何触及贸易盈利目标均不得利用,否则发生的一切结果将由您自己承当!本站将差池本站的任何内容负任何法令义务!该下载内容仅做宽带测试利用,请鄙人载后24小时内删除。请采办正
版!
-------------------------
◎种子下载地址
旅客,假如您要检察本帖隐藏内容请答复
回复

使用道具 举报

懒得打字嘛,点击右侧快捷回复 【右侧内容,后台自定义】
您需要登录后才可以回帖 登录 | 立即加入

本版积分规则

Archiver|小黑屋| 蓝光电影网 |网站地图

Copyright © 2021 Comsenz Inc. Powered by 蓝光电影网

蓝光电影网

本站内容由用户自主分享和转载自互联网,转载目的在于传递更多信息,并不代表本网赞同其观点和对其真实性负责。

如有侵权、违反国家法律政策行为,请联系我们,我们会第一时间及时清除和处理!

举报反馈邮箱:[email protected]

快速回复 返回顶部 返回列表