找回密码

查看: 3382|回复: 4

神战:权力之眼/埃及神战 Gods.of.Egypt.2016.2160p.BluRay.x265.10bit.HDR.DTS-X.7.1-TERMiNAL 15.37GB

[复制链接]
蓝光币
1984
发表于 2017-12-18 22:58:22 | 显示全部楼层 |阅读模式
223953rf7szmpt5otfn7om.jpg
◎译  名 神战:权利之眼/埃及神战/荷鲁斯之眼:王者争霸/神战·权利之眼/埃及众神/埃及之神/埃及诸神
◎片  名 Gods of Egypt
◎年  代 2016
◎产  地 美国/澳大利亚
◎类  别 行动/奇异/冒险
◎语  言 英语
◎上映日期 2016-02-26(美国)/2016-03-11(中国大陆)
◎IMDb评分5.4/10 from 80,431 users
◎IMDb链接http://www.imdb.com/title/tt2404233/
◎豆瓣评分 6.4/10 from 31,429 users
◎豆瓣链接 https://movie.douban.com/subject/26662345/
◎片  长 127分钟
◎导  演 亚历克斯·普罗亚斯 Alex Proyas
◎主  演 尼古拉·科斯特-瓦尔道 Nikolaj Coster-Waldau
      布伦顿·思韦茨 Brenton Thwaites
      杰拉德·巴特勒 Gerard Butler
      查德维克·博斯曼 Chadwick Boseman
      艾洛蒂·袁 Elodie Yung
      考特尼·伊顿 Courtney Eaton
      卢夫斯·塞维尔 Rufus Sewell
      杰弗里·拉什 Geoffrey Rush
      布莱恩·布朗 Bryan Brown
      瑞切尔·布莱克 Rachael Blake
      艾玛·布斯 Emma Booth
      戈兰·D·克鲁特 Goran D. Kleut
      阿比·丽 Abbey Lee
      布鲁斯·斯宾斯 Bruce Spence
      罗宾·奈文 Robyn Nevin

◎简  介

  故事发生在繁华兴盛的尼罗河边,在天神荷鲁斯(尼古拉·科斯特-瓦尔道 Nikolaj Coster-Waldau 饰)的战争统治之下,百姓们安身立命,生活在一片平和当中。但是好景不长,邪恶的黑暗之神赛特(杰拉德·巴特勒 Gerard Butler 饰)操纵诡计狡计夺走了荷鲁斯的王座和双眼,将他驱逐软禁,赛特素性残暴而好战,很快,全部国家堕入了紊乱当中。
  贝克(布兰顿·思怀兹 Brenton Thwaites 饰)只是一介普通的人类窃贼,却在意外当中成为了拯救人类的唯一希望。为了匹敌强大的赛特,他千里迢迢找到了荷鲁斯,向他追求帮助。就这样,一人一神的希奇组合建立了。为了重新获得气力,荷鲁斯必须夺回他的眼睛,以此为方针,一行人踏上了旅途。

◎获奖情况

  第37届金酸莓奖(2017)
  最差影片(提名)
  最差男配角(提名) 杰拉德·巴特勒
  最差导演(提名) 亚历克斯·普罗亚斯
  最差剧本(提名)
  最差银幕组合(提名)


  1. Video
  2. ID             : 1
  3. Format           : HEVC
  4. Format/Info          : High Efficiency Video Coding
  5. Format profile         : Main [url=mailto:10@L5.1]10@L5.1[/url]@High
  6. Codec ID           : V_MPEGH/ISO/HEVC
  7. Duration           : 2 h 7 min
  8. Bit rate           : 12.4 Mb/s
  9. Width            : 3 840 pixels
  10. Height           : 1 600 pixels
  11. Display aspect ratio       : 2.40:1
  12. Frame rate mode        : Constant
  13. Frame rate           : 23.976 (24000/1001) FPS
  14. Color space          : YUV
  15. Chroma subsampling       : 4:2:0 (Type 2)
  16. Bit depth          : 10 bits
  17. Bits/(Pixel*Frame)       : 0.084
  18. Stream size          : 11.0GB (72%)
  19. Writing library        : x265 2.5+58-06979c042350:[Windows][GCC 6.2.1][64 bit] 10bit
  20. Encoding settings        : cpuid=1173503 / frame-threads=4 / numa-pools=20 / wpp / no-pmode / no-pme / no-psnr / no-ssim / log-level=2 / input-csp=1 / input-res=3840x1600 / interlace=0 / total-frames=182761 / level-idc=51 / high-tier=1 / uhd-bd=0 / ref=4 / no-allow-non-conformance / repeat-headers / annexb / aud / hrd / info / hash=0 / no-temporal-layers / no-open-gop / min-keyint=1 / keyint=24 / bframes=4 / b-adapt=2 / b-pyramid / bframe-bias=0 / rc-lookahead=25 / lookahead-slices=4 / scenecut=40 / no-intra-refresh / ctu=64 / min-cu-size=8 / rect / no-amp / max-tu-size=32 / tu-inter-depth=1 / tu-intra-depth=1 / limit-tu=0 / rdoq-level=2 / dynamic-rd=0.00 / no-ssim-rd / signhide / no-tskip / nr-intra=0 / nr-inter=0 / no-constrained-intra / no-strong-intra-smoothing / max-merge=3 / limit-refs=3 / limit-modes / me=3 / subme=3 / merange=57 / temporal-mvp / weightp / no-weightb / no-analyze-src-pics / deblock=-3:-3 / no-sao / no-sao-non-deblock / rd=4 / no-early-skip / rskip / no-fast-intra / no-tskip-fast / no-cu-lossless / no-b-intra / no-splitrd-skip / rdpenalty=0 / psy-rd=2.00 / psy-rdoq=1.00 / no-rd-refine / analysis-reuse-mode=0 / no-lossless / cbqpoffs=0 / crqpoffs=0 / rc=crf / crf=17.0 / qcomp=0.60 / qpstep=4 / stats-write=0 / stats-read=0 / vbv-maxrate=160000 / vbv-bufsize=160000 / vbv-init=0.9 / crf-max=0.0 / crf-min=0.0 / ipratio=1.40 / pbratio=1.30 / aq-mode=1 / aq-strength=1.00 / cutree / zone-count=0 / no-strict-cbr / qg-size=32 / no-rc-grain / qpmax=69 / qpmin=0 / no-const-vbv / sar=1 / overscan=0 / videoformat=5 / range=0 / colorprim=9 / transfer=16 / colormatrix=9 / chromaloc=1 / chromaloc-top=2 / chromaloc-bottom=2 / display-window=0 / master-display=G(13250,34500)B(7500,3000)R(34000,16000)WP(15635,16450)L(40000000,50) / max-cll=0,0 / min-luma=0 / max-luma=1023 / log2-max-poc-lsb=8 / vui-timing-info / vui-hrd-info / slices=1 / no-opt-qp-pps / no-opt-ref-list-length-pps / no-multi-pass-opt-rps / scenecut-bias=0.05 / no-opt-cu-delta-qp / no-aq-motion / hdr / hdr-opt / no-dhdr10-opt / analysis-reuse-level=5 / scale-factor=0 / refine-intra=0 / refine-inter=0 / refine-mv=0 / no-limit-sao / ctu-info=0 / no-lowpass-dct / refine-mv-type=0 / copy-pic=1
  21. Default            : Yes
  22. Forced           : No
  23. Color range          : Limited
  24. Color primaries        : BT.2020
  25. Transfer characteristics     : PQ
  26. Matrix coefficients        : BT.2020 non-constant
  27. Mastering display color primaries  : R: x=0.680000 y=0.320000, G: x=0.265000 y=0.690000, B: x=0.150000 y=0.060000, White point: x=0.312700 y=0.329000
  28. Mastering display luminance    : min: 0.0050 cd/m2, max: 4000.0000 cd/m2

  29. Audio
  30. ID             : 2
  31. Format           : DTS
  32. Format/Info          : Digital Theater Systems
  33. Format profile         : X / MA / Core
  34. Codec ID           : A_DTS
  35. Duration           : 2 h 7 min
  36. Bit rate mode          : Variable / Variable / Constant
  37. Bit rate           : 4 731 kb/s / 4 731 kb/s / 1 509 kb/s
  38. Channel(s)           : Object Based / 8 channels / 6 channels
  39. Channel positions        : Object Based / Front: L C R, Side: L R, Back: L R, LFE / Front: L C R, Side: L R, LFE
  40. Sampling rate          :/ 48.0 kHz / 48.0 kHz
  41. Frame rate           : 93.750 FPS (512 SPF)
  42. Bit depth          :/ 24 bits / 24 bits
  43. Compression mode         :/ Lossless / Lossy
  44. Stream size          : 4.21GB (28%)
  45. Language           : English
  46. Default            : Yes
  47. Forced           : No

  48. Text #1
  49. ID             : 3
  50. Format           : PGS
  51. Muxing mode          : zlib
  52. Codec ID           : S_HDMV/PGS
  53. Codec ID/Info          : Picture based subtitle format used on BDs/HD-DVDs
  54. Duration           : 1 h 55 min
  55. Bit rate           : 27.3 kb/s
  56. Count of elements        : 2446
  57. Stream size          : 22.5 MiB (0%)
  58. Title            : English (white)
  59. Language           : English
  60. Default            : No
  61. Forced           : No

  62. Text #2
  63. ID             : 4
  64. Format           : PGS
  65. Muxing mode          : zlib
  66. Codec ID           : S_HDMV/PGS
  67. Codec ID/Info          : Picture based subtitle format used on BDs/HD-DVDs
  68. Duration           : 1 h 55 min
  69. Bit rate           : 27.3 kb/s
  70. Count of elements        : 2446
  71. Stream size          : 22.5 MiB (0%)
  72. Title            : English (gray)
  73. Language           : English
  74. Default            : No
  75. Forced           : No

  76. Text #3
  77. ID             : 5
  78. Format           : PGS
  79. Muxing mode          : zlib
  80. Codec ID           : S_HDMV/PGS
  81. Codec ID/Info          : Picture based subtitle format used on BDs/HD-DVDs
  82. Duration           : 1 h 55 min
  83. Bit rate           : 30.9 kb/s
  84. Count of elements        : 2974
  85. Stream size          : 25.5 MiB (0%)
  86. Title            : English SDH (white)
  87. Language           : English
  88. Default            : No
  89. Forced           : No

  90. Text #4
  91. ID             : 6
  92. Format           : PGS
  93. Muxing mode          : zlib
  94. Codec ID           : S_HDMV/PGS
  95. Codec ID/Info          : Picture based subtitle format used on BDs/HD-DVDs
  96. Duration           : 1 h 55 min
  97. Bit rate           : 30.9 kb/s
  98. Count of elements        : 2974
  99. Stream size          : 25.5 MiB (0%)
  100. Title            : English SDH (gray)
  101. Language           : English
  102. Default            : No
  103. Forced           : No

  104. Text #5
  105. ID             : 7
  106. Format           : PGS
  107. Muxing mode          : zlib
  108. Codec ID           : S_HDMV/PGS
  109. Codec ID/Info          : Picture based subtitle format used on BDs/HD-DVDs
  110. Duration           : 1 h 55 min
  111. Bit rate           : 27.2 kb/s
  112. Count of elements        : 2566
  113. Stream size          : 22.5 MiB (0%)
  114. Title            : Spanish (white)
  115. Language           : Spanish
  116. Default            : No
  117. Forced           : No

  118. Text #6
  119. ID             : 8
  120. Format           : PGS
  121. Muxing mode          : zlib
  122. Codec ID           : S_HDMV/PGS
  123. Codec ID/Info          : Picture based subtitle format used on BDs/HD-DVDs
  124. Duration           : 1 h 55 min
  125. Bit rate           : 27.2 kb/s
  126. Count of elements        : 2566
  127. Stream size          : 22.5 MiB (0%)
  128. Title            : Spanish (gray)
  129. Language           : Spanish
  130. Default            : No
  131. Forced           : No

  132. Menu
  133. 00:00:00.000         : en:00:00:00.000
  134. 00:07:08.011         : en:00:07:08.011
  135. 00:18:07.545         : en:00:18:07.545
  136. 00:23:47.259         : en:00:23:47.259
  137. 00:30:11.810         : en:00:30:11.810
  138. 00:39:16.521         : en:00:39:16.521
  139. 00:46:30.621         : en:00:46:30.621
  140. 00:54:46.074         : en:00:54:46.074
  141. 01:01:14.129         : en:01:01:14.129
  142. 01:09:29.040         : en:01:09:29.040
  143. 01:18:03.345         : en:01:18:03.345
  144. 01:28:18.251         : en:01:28:18.251
  145. 01:36:12.058         : en:01:36:12.058
  146. 01:39:14.657         : en:01:39:14.657
  147. 01:46:58.329         : en:01:46:58.329
  148. 01:52:11.016         : en:01:52:11.016


复制代码
复制代码
223954rtu0zgu30sdm8s6h.png 223955g7u8pb5c6wpil4cw.png 223956zimz5k14q5c4rkel.png 223957y47rf2p0z692rnvx.png 223958fug57v7mm33xpvq7.png 223959yf4lzeu4z49l55ew.png

                                



回复

使用道具 举报

懒得打字嘛,点击右侧快捷回复 【右侧内容,后台自定义】
您需要登录后才可以回帖 登录 | 立即加入

本版积分规则

Archiver| |网站地图

Copyright © 2024 Comsenz Inc. Powered by 蓝光电影网

本站内容由用户自主分享和转载自互联网,转载目的在于传递更多信息,并不代表本网赞同其观点和对其真实性负责。

如有侵权、违反国家法律政策行为,请联系我们,我们会第一时间及时清除和处理!

举报反馈邮箱:4k1080.com@gmail.com

快速回复 返回顶部 返回列表