找回密码

查看: 2905|回复: 1

乐高大电影/LEGO英雄传 The.Lego.Movie.2014.2160p.BluRay.REMUX.HEVC.DTS-HD.MA.5.1-FGT 41.83GB

[复制链接]
蓝光币
1971
发表于 2017-12-18 22:59:39 | 显示全部楼层 |阅读模式
224153x9nsjcjbqsatq01s.jpg
◎译  名 乐高峻电影/LEGO豪杰传
◎片  名 The Lego Movie
◎年  代 2014
◎产  地 美国/澳大利亚/丹麦
◎类  别 笑剧/动画/冒险
◎语  言 英语
◎上映日期 2014-02-07(美国)
◎IMDb评分7.8/10 from 277,811 users
◎IMDb链接http://www.imdb.com/title/tt1490017/
◎豆瓣评分 7.9/10 from 38,187 users
◎豆瓣链接 https://movie.douban.com/subject/3927734/
◎片  长 100分钟
◎导  演 菲尔·罗德 Phil Lord / 克里斯托弗·米勒 Christopher Miller
◎主  演 克里斯·帕拉特 Chris Pratt
      威尔·法瑞尔 Will Ferrell
      伊丽莎白·班克斯 Elizabeth Banks
      威尔·阿奈特 Will Arnett
      连姆·尼森 Liam Neeson
      摩根·弗里曼 Morgan Freeman
      查宁·塔图姆 Channing Tatum
      尼克·奥弗曼 Nick Offerman
      爱丽森·布里 Alison Brie
      查理·戴 Charlie Day
      乔纳·希尔 Jonah Hill
      寇碧·史莫德斯 Cobie Smulders
      大卫·布伦斯 David Burrows
      安东尼·丹尼尔斯 Anthony Daniels
      威尔·福特 Will Forte
      比利·迪·威廉姆斯 Billy Dee Williams
      基思·弗格森 Keith Ferguson
      沙奎尔·奥尼尔 Shaquille O'Neal
      杰登·桑德 Jadon Sand
      戴夫·弗兰科 Dave Franco
      杰克·约翰逊 Jake M. Johnson

◎简  介

  艾米特(克里斯·帕拉特 Chris Pratt 配音)是乐高天下中一个普通到没有存在感的修建师,他天天精神饱满,悲观向上,依照说明书的指示处置一天的活动。某天收工后,他意外掉入一个深洞,后背还黏了希奇的工具,随后就被兼具泼辣和善良两面的差人(利亚姆·尼森 Liam Neeson 配音)带走问话。本来统治乐高天下的买卖王(威尔·法瑞尔 Will Ferrell 配音)对那些极富缔造力的小人极为不满,他厌恶分歧系列的乐高天下相互穿插,更厌恶离开了说明书独辟门路的发现缔造。是以他将一切天下离隔,软禁了那些创意大师,还策划着一场可怕的诡计。艾米特危机时辰被露西(伊丽莎白·班克斯 Elizabeth Banks 配音)救下,并被先知维特鲁维斯(摩根·弗里曼 Morgan Freeman 配音)认定为救世主。
  狂风雨般的迫害袭向创意大师们,设想力窘蹙的艾米特能否担此重任?


  1. Video
  2. ID             : 1
  3. Format           : HEVC
  4. Format/Info          : High Efficiency Video Coding
  5. Format profile         : Main [url=mailto:10@L5.1]10@L5.1[/url]@High
  6. Codec ID           : V_MPEGH/ISO/HEVC
  7. Duration           : 1 h 40 min
  8. Bit rate           : 51.7 Mb/s
  9. Width            : 3 840 pixels
  10. Height           : 2 160 pixels
  11. Display aspect ratio       : 16:9
  12. Frame rate mode        : Constant
  13. Frame rate           : 23.976 (24000/1001) FPS
  14. Color space          : YUV
  15. Chroma subsampling       : 4:2:0 (Type 2)
  16. Bit depth          : 10 bits
  17. Bits/(Pixel*Frame)       : 0.260
  18. Stream size          : 36.3GB (87%)
  19. Title            : The.Lego.Movie.2014.2160p.BluRay.REMUX.HEVC.DTS-HD.MA.5.1-FGT
  20. Default            : Yes
  21. Forced           : No
  22. Color range          : Limited
  23. Color primaries        : BT.2020
  24. Transfer characteristics     : PQ
  25. Matrix coefficients        : BT.2020 non-constant
  26. Mastering display color primaries  : R: x=0.680000 y=0.320000, G: x=0.265000 y=0.690000, B: x=0.150000 y=0.060000, White point: x=0.312700 y=0.329000
  27. Mastering display luminance    : min: 0.0050 cd/m2, max: 4000.0000 cd/m2
  28. Maximum Content Light Level    : 2154 cd/m2
  29. Maximum Frame-Average Light Level  : 1521 cd/m2

  30. Audio #1
  31. ID             : 2
  32. Format           : DTS
  33. Format/Info          : Digital Theater Systems
  34. Format profile         : MA / Core
  35. Codec ID           : A_DTS
  36. Duration           : 1 h 40 min
  37. Bit rate mode          : Variable / Constant
  38. Bit rate           : 2 259 kb/s / 1 509 kb/s
  39. Channel(s)           : 6 channels
  40. Channel positions        : Front: L C R, Side: L R, LFE
  41. Sampling rate          : 48.0 kHz
  42. Frame rate           : 93.750 FPS (512 SPF)
  43. Bit depth          : 16 bits
  44. Compression mode         : Lossless / Lossy
  45. Stream size          : 1.59GB (4%)
  46. Title            : The.Lego.Movie.2014.2160p.BluRay.REMUX.HEVC.DTS-HD.MA.5.1-FGT
  47. Language           : English
  48. Default            : Yes
  49. Forced           : No

  50. Audio #2
  51. ID             : 3
  52. Format           : AC-3
  53. Format/Info          : Audio Coding 3
  54. Codec ID           : A_AC3
  55. Duration           : 1 h 40 min
  56. Bit rate mode          : Constant
  57. Bit rate           : 448 kb/s
  58. Channel(s)           : 6 channels
  59. Channel positions        : Front: L C R, Side: L R, LFE
  60. Sampling rate          : 48.0 kHz
  61. Frame rate           : 31.250 FPS (1536 SPF)
  62. Bit depth          : 16 bits
  63. Compression mode         : Lossy
  64. Delay relative to video      : 23 ms
  65. Stream size          : 322 MiB (1%)
  66. Title            : The.Lego.Movie.2014.2160p.BluRay.REMUX.HEVC.DTS-HD.MA.5.1-FGT
  67. Language           : English
  68. Service kind         : Complete Main
  69. Default            : No
  70. Forced           : No

  71. Audio #3
  72. ID             : 4
  73. Format           : AC-3
  74. Format/Info          : Audio Coding 3
  75. Codec ID           : A_AC3
  76. Duration           : 1 h 40 min
  77. Bit rate mode          : Constant
  78. Bit rate           : 448 kb/s
  79. Channel(s)           : 6 channels
  80. Channel positions        : Front: L C R, Side: L R, LFE
  81. Sampling rate          : 48.0 kHz
  82. Frame rate           : 31.250 FPS (1536 SPF)
  83. Bit depth          : 16 bits
  84. Compression mode         : Lossy
  85. Delay relative to video      : 23 ms
  86. Stream size          : 322 MiB (1%)
  87. Title            : The.Lego.Movie.2014.2160p.BluRay.REMUX.HEVC.DTS-HD.MA.5.1-FGT
  88. Language           : French
  89. Service kind         : Complete Main
  90. Default            : No
  91. Forced           : No

  92. Audio #4
  93. ID             : 5
  94. Format           : AC-3
  95. Format/Info          : Audio Coding 3
  96. Codec ID           : A_AC3
  97. Duration           : 1 h 40 min
  98. Bit rate mode          : Constant
  99. Bit rate           : 448 kb/s
  100. Channel(s)           : 6 channels
  101. Channel positions        : Front: L C R, Side: L R, LFE
  102. Sampling rate          : 48.0 kHz
  103. Frame rate           : 31.250 FPS (1536 SPF)
  104. Bit depth          : 16 bits
  105. Compression mode         : Lossy
  106. Delay relative to video      : 23 ms
  107. Stream size          : 322 MiB (1%)
  108. Title            : The.Lego.Movie.2014.2160p.BluRay.REMUX.HEVC.DTS-HD.MA.5.1-FGT
  109. Language           : French
  110. Service kind         : Complete Main
  111. Default            : No
  112. Forced           : No

  113. Audio #5
  114. ID             : 6
  115. Format           : AC-3
  116. Format/Info          : Audio Coding 3
  117. Codec ID           : A_AC3
  118. Duration           : 1 h 40 min
  119. Bit rate mode          : Constant
  120. Bit rate           : 448 kb/s
  121. Channel(s)           : 6 channels
  122. Channel positions        : Front: L C R, Side: L R, LFE
  123. Sampling rate          : 48.0 kHz
  124. Frame rate           : 31.250 FPS (1536 SPF)
  125. Bit depth          : 16 bits
  126. Compression mode         : Lossy
  127. Delay relative to video      : 23 ms
  128. Stream size          : 322 MiB (1%)
  129. Title            : The.Lego.Movie.2014.2160p.BluRay.REMUX.HEVC.DTS-HD.MA.5.1-FGT
  130. Language           : German
  131. Service kind         : Complete Main
  132. Default            : No
  133. Forced           : No

  134. Audio #6
  135. ID             : 7
  136. Format           : AC-3
  137. Format/Info          : Audio Coding 3
  138. Codec ID           : A_AC3
  139. Duration           : 1 h 40 min
  140. Bit rate mode          : Constant
  141. Bit rate           : 448 kb/s
  142. Channel(s)           : 6 channels
  143. Channel positions        : Front: L C R, Side: L R, LFE
  144. Sampling rate          : 48.0 kHz
  145. Frame rate           : 31.250 FPS (1536 SPF)
  146. Bit depth          : 16 bits
  147. Compression mode         : Lossy
  148. Delay relative to video      : 23 ms
  149. Stream size          : 322 MiB (1%)
  150. Title            : The.Lego.Movie.2014.2160p.BluRay.REMUX.HEVC.DTS-HD.MA.5.1-FGT
  151. Language           : Italian
  152. Service kind         : Complete Main
  153. Default            : No
  154. Forced           : No

  155. Audio #7
  156. ID             : 8
  157. Format           : AC-3
  158. Format/Info          : Audio Coding 3
  159. Codec ID           : A_AC3
  160. Duration           : 1 h 40 min
  161. Bit rate mode          : Constant
  162. Bit rate           : 448 kb/s
  163. Channel(s)           : 6 channels
  164. Channel positions        : Front: L C R, Side: L R, LFE
  165. Sampling rate          : 48.0 kHz
  166. Frame rate           : 31.250 FPS (1536 SPF)
  167. Bit depth          : 16 bits
  168. Compression mode         : Lossy
  169. Delay relative to video      : 23 ms
  170. Stream size          : 322 MiB (1%)
  171. Title            : The.Lego.Movie.2014.2160p.BluRay.REMUX.HEVC.DTS-HD.MA.5.1-FGT
  172. Language           : Spanish
  173. Service kind         : Complete Main
  174. Default            : No
  175. Forced           : No

  176. Audio #8
  177. ID             : 9
  178. Format           : AC-3
  179. Format/Info          : Audio Coding 3
  180. Codec ID           : A_AC3
  181. Duration           : 1 h 40 min
  182. Bit rate mode          : Constant
  183. Bit rate           : 448 kb/s
  184. Channel(s)           : 6 channels
  185. Channel positions        : Front: L C R, Side: L R, LFE
  186. Sampling rate          : 48.0 kHz
  187. Frame rate           : 31.250 FPS (1536 SPF)
  188. Bit depth          : 16 bits
  189. Compression mode         : Lossy
  190. Delay relative to video      : 23 ms
  191. Stream size          : 322 MiB (1%)
  192. Title            : The.Lego.Movie.2014.2160p.BluRay.REMUX.HEVC.DTS-HD.MA.5.1-FGT
  193. Language           : Dutch
  194. Service kind         : Complete Main
  195. Default            : No
  196. Forced           : No

  197. Audio #9
  198. ID             : 10
  199. Format           : AC-3
  200. Format/Info          : Audio Coding 3
  201. Codec ID           : A_AC3
  202. Duration           : 1 h 40 min
  203. Bit rate mode          : Constant
  204. Bit rate           : 448 kb/s
  205. Channel(s)           : 6 channels
  206. Channel positions        : Front: L C R, Side: L R, LFE
  207. Sampling rate          : 48.0 kHz
  208. Frame rate           : 31.250 FPS (1536 SPF)
  209. Bit depth          : 16 bits
  210. Compression mode         : Lossy
  211. Delay relative to video      : 23 ms
  212. Stream size          : 322 MiB (1%)
  213. Title            : The.Lego.Movie.2014.2160p.BluRay.REMUX.HEVC.DTS-HD.MA.5.1-FGT
  214. Language           : Spanish
  215. Service kind         : Complete Main
  216. Default            : No
  217. Forced           : No

  218. Audio #10
  219. ID             : 11
  220. Format           : AC-3
  221. Format/Info          : Audio Coding 3
  222. Codec ID           : A_AC3
  223. Duration           : 1 h 40 min
  224. Bit rate mode          : Constant
  225. Bit rate           : 448 kb/s
  226. Channel(s)           : 6 channels
  227. Channel positions        : Front: L C R, Side: L R, LFE
  228. Sampling rate          : 48.0 kHz
  229. Frame rate           : 31.250 FPS (1536 SPF)
  230. Bit depth          : 16 bits
  231. Compression mode         : Lossy
  232. Delay relative to video      : 23 ms
  233. Stream size          : 322 MiB (1%)
  234. Title            : The.Lego.Movie.2014.2160p.BluRay.REMUX.HEVC.DTS-HD.MA.5.1-FGT
  235. Language           : Portuguese
  236. Service kind         : Complete Main
  237. Default            : No
  238. Forced           : No

  239. Audio #11
  240. ID             : 12
  241. Format           : AC-3
  242. Format/Info          : Audio Coding 3
  243. Codec ID           : A_AC3
  244. Duration           : 1 h 40 min
  245. Bit rate mode          : Constant
  246. Bit rate           : 448 kb/s
  247. Channel(s)           : 6 channels
  248. Channel positions        : Front: L C R, Side: L R, LFE
  249. Sampling rate          : 48.0 kHz
  250. Frame rate           : 31.250 FPS (1536 SPF)
  251. Bit depth          : 16 bits
  252. Compression mode         : Lossy
  253. Delay relative to video      : 23 ms
  254. Stream size          : 322 MiB (1%)
  255. Title            : The.Lego.Movie.2014.2160p.BluRay.REMUX.HEVC.DTS-HD.MA.5.1-FGT
  256. Language           : Catalan
  257. Service kind         : Complete Main
  258. Default            : No
  259. Forced           : No

  260. Audio #12
  261. ID             : 13
  262. Format           : AC-3
  263. Format/Info          : Audio Coding 3
  264. Codec ID           : A_AC3
  265. Duration           : 1 h 40 min
  266. Bit rate mode          : Constant
  267. Bit rate           : 448 kb/s
  268. Channel(s)           : 6 channels
  269. Channel positions        : Front: L C R, Side: L R, LFE
  270. Sampling rate          : 48.0 kHz
  271. Frame rate           : 31.250 FPS (1536 SPF)
  272. Bit depth          : 16 bits
  273. Compression mode         : Lossy
  274. Delay relative to video      : 23 ms
  275. Stream size          : 322 MiB (1%)
  276. Title            : The.Lego.Movie.2014.2160p.BluRay.REMUX.HEVC.DTS-HD.MA.5.1-FGT
  277. Language           : Dutch
  278. Service kind         : Complete Main
  279. Default            : No
  280. Forced           : No

  281. Audio #13
  282. ID             : 14
  283. Format           : AC-3
  284. Format/Info          : Audio Coding 3
  285. Codec ID           : A_AC3
  286. Duration           : 1 h 40 min
  287. Bit rate mode          : Constant
  288. Bit rate           : 448 kb/s
  289. Channel(s)           : 6 channels
  290. Channel positions        : Front: L C R, Side: L R, LFE
  291. Sampling rate          : 48.0 kHz
  292. Frame rate           : 31.250 FPS (1536 SPF)
  293. Bit depth          : 16 bits
  294. Compression mode         : Lossy
  295. Delay relative to video      : 23 ms
  296. Stream size          : 322 MiB (1%)
  297. Title            : The.Lego.Movie.2014.2160p.BluRay.REMUX.HEVC.DTS-HD.MA.5.1-FGT
  298. Language           : Japanese
  299. Service kind         : Complete Main
  300. Default            : No
  301. Forced           : No

  302. Text #1
  303. ID             : 15
  304. Format           : PGS
  305. Muxing mode          : zlib
  306. Codec ID           : S_HDMV/PGS
  307. Codec ID/Info          : Picture based subtitle format used on BDs/HD-DVDs
  308. Duration           : 1 h 39 min
  309. Bit rate           : 51.4 kb/s
  310. Count of elements        : 4308
  311. Stream size          : 36.7 MiB (0%)
  312. Title            : English-PGS
  313. Language           : English
  314. Default            : Yes
  315. Forced           : No

  316. Text #2
  317. ID             : 16
  318. Format           : PGS
  319. Muxing mode          : zlib
  320. Codec ID           : S_HDMV/PGS
  321. Codec ID/Info          : Picture based subtitle format used on BDs/HD-DVDs
  322. Duration           : 1 h 39 min
  323. Bit rate           : 35.1 kb/s
  324. Count of elements        : 3470
  325. Stream size          : 25.0 MiB (0%)
  326. Title            : French-PGS
  327. Language           : French
  328. Default            : No
  329. Forced           : No

  330. Text #3
  331. ID             : 17
  332. Format           : PGS
  333. Muxing mode          : zlib
  334. Codec ID           : S_HDMV/PGS
  335. Codec ID/Info          : Picture based subtitle format used on BDs/HD-DVDs
  336. Duration           : 1 h 39 min
  337. Bit rate           : 56.8 kb/s
  338. Count of elements        : 4306
  339. Stream size          : 40.6 MiB (0%)
  340. Title            : German-PGS
  341. Language           : German
  342. Default            : No
  343. Forced           : No

  344. Text #4
  345. ID             : 18
  346. Format           : PGS
  347. Muxing mode          : zlib
  348. Codec ID           : S_HDMV/PGS
  349. Codec ID/Info          : Picture based subtitle format used on BDs/HD-DVDs
  350. Duration           : 1 h 39 min
  351. Bit rate           : 50.1 kb/s
  352. Count of elements        : 4340
  353. Stream size          : 35.8 MiB (0%)
  354. Title            : Italian-PGS
  355. Language           : Italian
  356. Default            : No
  357. Forced           : No

  358. Text #5
  359. ID             : 19
  360. Format           : PGS
  361. Muxing mode          : zlib
  362. Codec ID           : S_HDMV/PGS
  363. Codec ID/Info          : Picture based subtitle format used on BDs/HD-DVDs
  364. Duration           : 1 h 39 min
  365. Bit rate           : 47.3 kb/s
  366. Count of elements        : 3858
  367. Stream size          : 33.8 MiB (0%)
  368. Title            : Spanish-PGS
  369. Language           : Spanish
  370. Default            : No
  371. Forced           : No

  372. Text #6
  373. ID             : 20
  374. Format           : PGS
  375. Muxing mode          : zlib
  376. Codec ID           : S_HDMV/PGS
  377. Codec ID/Info          : Picture based subtitle format used on BDs/HD-DVDs
  378. Duration           : 1 h 39 min
  379. Bit rate           : 37.9 kb/s
  380. Count of elements        : 3694
  381. Stream size          : 27.1 MiB (0%)
  382. Title            : Dutch_PGS
  383. Language           : Dutch
  384. Default            : No
  385. Forced           : No

  386. Text #7
  387. ID             : 21
  388. Format           : PGS
  389. Muxing mode          : zlib
  390. Codec ID           : S_HDMV/PGS
  391. Codec ID/Info          : Picture based subtitle format used on BDs/HD-DVDs
  392. Duration           : 1 h 39 min
  393. Bit rate           : 45.6 kb/s
  394. Count of elements        : 3860
  395. Stream size          : 32.6 MiB (0%)
  396. Title            : Spanish-PGS
  397. Language           : Spanish
  398. Default            : No
  399. Forced           : No

  400. Text #8
  401. ID             : 22
  402. Format           : PGS
  403. Muxing mode          : zlib
  404. Codec ID           : S_HDMV/PGS
  405. Codec ID/Info          : Picture based subtitle format used on BDs/HD-DVDs
  406. Duration           : 1 h 39 min
  407. Bit rate           : 43.9 kb/s
  408. Count of elements        : 3848
  409. Stream size          : 31.4 MiB (0%)
  410. Title            : Portuguese-pGS
  411. Language           : Portuguese
  412. Default            : No
  413. Forced           : No

  414. Text #9
  415. ID             : 23
  416. Format           : PGS
  417. Muxing mode          : zlib
  418. Codec ID           : S_HDMV/PGS
  419. Codec ID/Info          : Picture based subtitle format used on BDs/HD-DVDs
  420. Duration           : 1 h 38 min
  421. Bit rate           : 362 b/s
  422. Count of elements        : 40
  423. Stream size          : 260 KiB (0%)
  424. Title            : French-FORCED-PGS
  425. Language           : French
  426. Default            : No
  427. Forced           : No

  428. Text #10
  429. ID             : 24
  430. Format           : PGS
  431. Muxing mode          : zlib
  432. Codec ID           : S_HDMV/PGS
  433. Codec ID/Info          : Picture based subtitle format used on BDs/HD-DVDs
  434. Duration           : 1 h 38 min
  435. Bit rate           : 218 b/s
  436. Count of elements        : 24
  437. Stream size          : 157 KiB (0%)
  438. Title            : German-FORCED-PGS
  439. Language           : German
  440. Default            : No
  441. Forced           : No

  442. Text #11
  443. ID             : 25
  444. Format           : PGS
  445. Muxing mode          : zlib
  446. Codec ID           : S_HDMV/PGS
  447. Codec ID/Info          : Picture based subtitle format used on BDs/HD-DVDs
  448. Duration           : 1 h 38 min
  449. Bit rate           : 298 b/s
  450. Count of elements        : 34
  451. Stream size          : 215 KiB (0%)
  452. Title            : Italian-FORCED-PGS
  453. Language           : Italian
  454. Default            : No
  455. Forced           : No

  456. Text #12
  457. ID             : 26
  458. Format           : PGS
  459. Muxing mode          : zlib
  460. Codec ID           : S_HDMV/PGS
  461. Codec ID/Info          : Picture based subtitle format used on BDs/HD-DVDs
  462. Duration           : 1 h 38 min
  463. Bit rate           : 583 b/s
  464. Count of elements        : 62
  465. Stream size          : 420 KiB (0%)
  466. Title            : Spanish-FORCED-PGS
  467. Language           : Spanish
  468. Default            : No
  469. Forced           : No

  470. Text #13
  471. ID             : 27
  472. Format           : PGS
  473. Muxing mode          : zlib
  474. Codec ID           : S_HDMV/PGS
  475. Codec ID/Info          : Picture based subtitle format used on BDs/HD-DVDs
  476. Duration           : 1 h 37 min
  477. Bit rate           : 407 b/s
  478. Count of elements        : 48
  479. Stream size          : 291 KiB (0%)
  480. Title            : Dutch-FORCED-PGS
  481. Language           : Dutch
  482. Default            : No
  483. Forced           : No

  484. Text #14
  485. ID             : 28
  486. Format           : PGS
  487. Muxing mode          : zlib
  488. Codec ID           : S_HDMV/PGS
  489. Codec ID/Info          : Picture based subtitle format used on BDs/HD-DVDs
  490. Duration           : 1 h 37 min
  491. Bit rate           : 289 b/s
  492. Count of elements        : 34
  493. Stream size          : 207 KiB (0%)
  494. Title            : Spanish-FORCED-PGS
  495. Language           : Spanish
  496. Default            : No
  497. Forced           : No

  498. Text #15
  499. ID             : 29
  500. Format           : PGS
  501. Muxing mode          : zlib
  502. Codec ID           : S_HDMV/PGS
  503. Codec ID/Info          : Picture based subtitle format used on BDs/HD-DVDs
  504. Duration           : 1 h 37 min
  505. Bit rate           : 337 b/s
  506. Count of elements        : 36
  507. Stream size          : 241 KiB (0%)
  508. Title            : Portuguese-FORCED-PGS
  509. Language           : Portuguese
  510. Default            : No
  511. Forced           : No

  512. Text #16
  513. ID             : 30
  514. Format           : PGS
  515. Muxing mode          : zlib
  516. Codec ID           : S_HDMV/PGS
  517. Codec ID/Info          : Picture based subtitle format used on BDs/HD-DVDs
  518. Duration           : 1 h 32 min
  519. Bit rate           : 31.1 kb/s
  520. Count of elements        : 3575
  521. Stream size          : 20.6 MiB (0%)
  522. Title            : Japanese-PGS
  523. Language           : Japanese
  524. Default            : No
  525. Forced           : No

  526. Text #17
  527. ID             : 31
  528. Format           : PGS
  529. Muxing mode          : zlib
  530. Codec ID           : S_HDMV/PGS
  531. Codec ID/Info          : Picture based subtitle format used on BDs/HD-DVDs
  532. Duration           : 21 min 21 s
  533. Bit rate           : 236 b/s
  534. Count of elements        : 12
  535. Stream size          : 37.1 KiB (0%)
  536. Title            : Japanese-FORCED-PGS
  537. Language           : Japanese
  538. Default            : No
  539. Forced           : No

  540. Menu
  541. 00:00:00.000         : en:Chapter 1
  542. 00:09:43.040         : en:Chapter 2
  543. 00:18:17.387         : en:Chapter 3
  544. 00:29:49.746         : en:Chapter 4
  545. 00:38:47.033         : en:Chapter 5
  546. 00:48:44.046         : en:Chapter 6
  547. 00:57:48.423         : en:Chapter 7
  548. 01:06:04.251         : en:Chapter 8
  549. 01:16:23.203         : en:Chapter 9
  550. 01:25:55.150         : en:Chapter 10
  551. 01:32:56.320         : en:Chapter 11


复制代码
复制代码
224154acq3q1ull8qul9vl.png 224155kn6nna66mrafrrm9.png 224156dtv7p5gteofevgfg.png 224157zr6s2ahwatckryck.png 224158mwx65cnl6n4zzhzs.png 224159imkgkpdz7qpgo89d.png

                                





回复

使用道具 举报

蓝光币
140
发表于 2018-5-29 09:57:34 | 显示全部楼层
强烈支持楼主ing……
回复

使用道具 举报

懒得打字嘛,点击右侧快捷回复 【右侧内容,后台自定义】
您需要登录后才可以回帖 登录 | 立即加入

本版积分规则

Archiver| |网站地图

Copyright © 2024 Comsenz Inc. Powered by 蓝光电影网

本站内容由用户自主分享和转载自互联网,转载目的在于传递更多信息,并不代表本网赞同其观点和对其真实性负责。

如有侵权、违反国家法律政策行为,请联系我们,我们会第一时间及时清除和处理!

举报反馈邮箱:4k1080.com@gmail.com

快速回复 返回顶部 返回列表