找回密码

查看: 4000|回复: 8

黑夜传说/妖夜寻狼 Underworld.2003.2160p.BluRay.REMUX.HEVC.DTS-HD.MA.TrueHD.7.1.Atmos-FGT 52.56GB

[复制链接]
蓝光币
1974
发表于 2017-12-18 23:00:01 | 显示全部楼层 |阅读模式
224226w55668lfm6qeuowa.jpg
◎译  名 黑夜传闻/妖夜寻狼
◎片  名 Underworld
◎年  代 2003
◎产  地 英国/德国/匈牙利/美国
◎类  别 行动/奇异/惊悚
◎语  言 英语
◎上映日期 2003-09-08(多伦多电影节)/2003-09-19(美国)
◎IMDb评分7.0/10 from 227,250 users
◎IMDb链接http://www.imdb.com/title/tt0320691/
◎豆瓣评分 7.4/10 from 65,262 users
◎豆瓣链接 https://movie.douban.com/subject/1307527/
◎片  长 121分钟/133分钟(导演剪辑版)
◎导  演 伦·怀斯曼 Len Wiseman
◎主  演 凯特·贝金赛尔 Kate Beckinsale
      斯科特·斯比德曼 Scott Speedman
      山恩·布罗利 Shane Brolly
      麦克·辛 Michael Sheen
      比尔·奈伊 Bill Nighy
      索非亚·迈尔斯 Sophia Myles
      文特沃斯·米勒 Wentworth Miller

◎简  介

  地球上一向存在着一个黑暗的地来天下。那边,两大种族――吸血鬼和狼人――在斗得不共戴天,每一方都以消灭对方种族为终极方针。
  一次,吸血鬼族的“月神”西丽妮(凯特?贝金赛尔 Kate Beckinsale 饰)在追杀几个落败的狼人时发现,狼人正在谋害绑架人类的一位医生麦克尔(斯科特?斯比德曼 Scott Speedman 饰)。心知狼人必有所图,西丽妮单独前往狼窝查探。不意中了狼人的匿伏,身负重伤之际幸得麦克尔相救。在麦克尔送西丽妮回吸血鬼营地的途中,他意外被一只吸血鬼咬伤了,由此揭开了麦克尔的身世之谜和狼人的诡计……


  1. Video
  2. ID             : 1
  3. Format           : HEVC
  4. Format/Info          : High Efficiency Video Coding
  5. Format profile         : Main [url=mailto:10@L5.1]10@L5.1[/url]@High
  6. Codec ID           : V_MPEGH/ISO/HEVC
  7. Duration           : 2 h 1 min
  8. Bit rate           : 47.3 Mb/s
  9. Width            : 3 840 pixels
  10. Height           : 2 160 pixels
  11. Display aspect ratio       : 16:9
  12. Frame rate mode        : Constant
  13. Frame rate           : 23.976 (24000/1001) FPS
  14. Color space          : YUV
  15. Chroma subsampling       : 4:2:0 (Type 2)
  16. Bit depth          : 10 bits
  17. Bits/(Pixel*Frame)       : 0.238
  18. Stream size          : 40.0GB (76%)
  19. Title            : Underworld.2003.2160p.BluRay.REMUX.HEVC.DTS-HD.MA.TrueHD.7.1.Atmos-FGT
  20. Default            : Yes
  21. Forced           : No
  22. Color range          : Limited
  23. Color primaries        : BT.2020
  24. Transfer characteristics     : PQ
  25. Matrix coefficients        : BT.2020 non-constant
  26. Mastering display color primaries  : R: x=0.680000 y=0.320000, G: x=0.265000 y=0.690000, B: x=0.150000 y=0.060000, White point: x=0.312700 y=0.329000
  27. Mastering display luminance    : min: 0.0050 cd/m2, max: 4000.0000 cd/m2
  28. Maximum Content Light Level    : 810 cd/m2
  29. Maximum Frame-Average Light Level  : 498 cd/m2

  30. Audio #1
  31. ID             : 2
  32. Format           : TrueHD
  33. Format profile         : TrueHD+Atmos / TrueHD
  34. Codec ID           : A_TRUEHD
  35. Duration           : 2 h 1 min
  36. Bit rate mode          : Variable
  37. Bit rate           : 5 186 kb/s
  38. Maximum bit rate         : 8 805 kb/s
  39. Channel(s)           : Object Based / 8 channels
  40. Channel positions        : Object Based / Front: L C R, Side: L R, Back: L R, LFE
  41. Sampling rate          :/ 48.0 kHz
  42. Frame rate           : 1 200.000 FPS (40 SPF)
  43. Compression mode         : Lossless
  44. Stream size          : 4.39GB (8%)
  45. Title            : Underworld.2003.2160p.BluRay.REMUX.HEVC.DTS-HD.MA.TrueHD.7.1.Atmos-FGT
  46. Language           : English
  47. Default            : Yes
  48. Forced           : No

  49. Audio #2
  50. ID             : 3
  51. Format           : DTS
  52. Format/Info          : Digital Theater Systems
  53. Format profile         : MA / Core
  54. Codec ID           : A_DTS
  55. Duration           : 2 h 1 min
  56. Bit rate mode          : Variable / Constant
  57. Bit rate           : 4 183 kb/s / 1 509 kb/s
  58. Channel(s)           : 8 channels / 6 channels
  59. Channel positions        : Front: L C R, Side: L R, Back: L R, LFE / Front: L C R, Side: L R, LFE
  60. Sampling rate          : 48.0 kHz
  61. Frame rate           : 93.750 FPS (512 SPF)
  62. Bit depth          : 24 bits
  63. Compression mode         : Lossless / Lossy
  64. Stream size          : 3.54GB (7%)
  65. Title            : Underworld.2003.2160p.BluRay.REMUX.HEVC.DTS-HD.MA.TrueHD.7.1.Atmos-FGT
  66. Language           : English
  67. Default            : No
  68. Forced           : No

  69. Audio #3
  70. ID             : 4
  71. Format           : AC-3
  72. Format/Info          : Audio Coding 3
  73. Codec ID           : A_AC3
  74. Duration           : 2 h 1 min
  75. Bit rate mode          : Constant
  76. Bit rate           : 640 kb/s
  77. Channel(s)           : 6 channels
  78. Channel positions        : Front: L C R, Side: L R, LFE
  79. Sampling rate          : 48.0 kHz
  80. Frame rate           : 31.250 FPS (1536 SPF)
  81. Bit depth          : 16 bits
  82. Compression mode         : Lossy
  83. Stream size          : 555 MiB (1%)
  84. Title            : Underworld.2003.2160p.BluRay.REMUX.HEVC.DTS-HD.MA.TrueHD.7.1.Atmos-FGT
  85. Language           : English
  86. Service kind         : Complete Main
  87. Default            : No
  88. Forced           : No

  89. Audio #4
  90. ID             : 5
  91. Format           : DTS
  92. Format/Info          : Digital Theater Systems
  93. Format profile         : MA / Core
  94. Codec ID           : A_DTS
  95. Duration           : 2 h 1 min
  96. Bit rate mode          : Variable / Constant
  97. Bit rate           : 2 350 kb/s / 1 509 kb/s
  98. Channel(s)           : 6 channels
  99. Channel positions        : Front: L C R, Side: L R, LFE
  100. Sampling rate          : 48.0 kHz
  101. Frame rate           : 93.750 FPS (512 SPF)
  102. Bit depth          : 16 bits
  103. Compression mode         : Lossless / Lossy
  104. Delay relative to video      : 5 ms
  105. Stream size          : 1.99GB (4%)
  106. Title            : Underworld.2003.2160p.BluRay.REMUX.HEVC.DTS-HD.MA.TrueHD.7.1.Atmos-FGT
  107. Language           : French
  108. Default            : No
  109. Forced           : No

  110. Audio #5
  111. ID             : 6
  112. Format           : DTS
  113. Format/Info          : Digital Theater Systems
  114. Format profile         : MA / Core
  115. Codec ID           : A_DTS
  116. Duration           : 2 h 1 min
  117. Bit rate mode          : Variable / Constant
  118. Bit rate           : 2 337 kb/s / 1 509 kb/s
  119. Channel(s)           : 6 channels
  120. Channel positions        : Front: L C R, Side: L R, LFE
  121. Sampling rate          : 48.0 kHz
  122. Frame rate           : 93.750 FPS (512 SPF)
  123. Bit depth          : 16 bits
  124. Compression mode         : Lossless / Lossy
  125. Delay relative to video      : 5 ms
  126. Stream size          : 1.98GB (4%)
  127. Title            : Underworld.2003.2160p.BluRay.REMUX.HEVC.DTS-HD.MA.TrueHD.7.1.Atmos-FGT
  128. Language           : Italian
  129. Default            : No
  130. Forced           : No

  131. Text #1
  132. ID             : 7
  133. Format           : PGS
  134. Muxing mode          : zlib
  135. Codec ID           : S_HDMV/PGS
  136. Codec ID/Info          : Picture based subtitle format used on BDs/HD-DVDs
  137. Duration           : 2 h 0 min
  138. Bit rate           : 19.5 kb/s
  139. Count of elements        : 1954
  140. Stream size          : 16.7 MiB (0%)
  141. Title            : English-PGS
  142. Language           : English
  143. Default            : Yes
  144. Forced           : No

  145. Text #2
  146. ID             : 8
  147. Format           : PGS
  148. Muxing mode          : zlib
  149. Codec ID           : S_HDMV/PGS
  150. Codec ID/Info          : Picture based subtitle format used on BDs/HD-DVDs
  151. Duration           : 1 h 52 min
  152. Bit rate           : 16.2 kb/s
  153. Count of elements        : 1325
  154. Stream size          : 13.0 MiB (0%)
  155. Title            : English-SDH-PGS
  156. Language           : English
  157. Default            : No
  158. Forced           : No

  159. Text #3
  160. ID             : 9
  161. Format           : PGS
  162. Muxing mode          : zlib
  163. Codec ID           : S_HDMV/PGS
  164. Codec ID/Info          : Picture based subtitle format used on BDs/HD-DVDs
  165. Duration           : 2 h 0 min
  166. Bit rate           : 19.5 kb/s
  167. Count of elements        : 1955
  168. Stream size          : 16.7 MiB (0%)
  169. Title            : English-PGS
  170. Language           : English
  171. Default            : No
  172. Forced           : No

  173. Text #4
  174. ID             : 10
  175. Format           : PGS
  176. Muxing mode          : zlib
  177. Codec ID           : S_HDMV/PGS
  178. Codec ID/Info          : Picture based subtitle format used on BDs/HD-DVDs
  179. Duration           : 1 h 52 min
  180. Bit rate           : 16.2 kb/s
  181. Count of elements        : 1326
  182. Stream size          : 13.0 MiB (0%)
  183. Title            : English-SDH-PGS
  184. Language           : English
  185. Default            : No
  186. Forced           : No

  187. Text #5
  188. ID             : 11
  189. Format           : PGS
  190. Muxing mode          : zlib
  191. Codec ID           : S_HDMV/PGS
  192. Codec ID/Info          : Picture based subtitle format used on BDs/HD-DVDs
  193. Duration           : 2 h 0 min
  194. Bit rate           : 13.8 kb/s
  195. Count of elements        : 1318
  196. Stream size          : 11.9 MiB (0%)
  197. Title            : French-PGS
  198. Language           : French
  199. Default            : No
  200. Forced           : No

  201. Text #6
  202. ID             : 12
  203. Format           : PGS
  204. Muxing mode          : zlib
  205. Codec ID           : S_HDMV/PGS
  206. Codec ID/Info          : Picture based subtitle format used on BDs/HD-DVDs
  207. Duration           : 1 h 52 min
  208. Bit rate           : 17.0 kb/s
  209. Count of elements        : 1339
  210. Stream size          : 13.7 MiB (0%)
  211. Title            : Italian-PGS
  212. Language           : Italian
  213. Default            : No
  214. Forced           : No

  215. Menu
  216. 00:00:00.000         : en:Chapter 1
  217. 00:07:41.419         : en:Chapter 2
  218. 00:16:32.282         : en:Chapter 3
  219. 00:22:30.140         : en:Chapter 4
  220. 00:28:20.615         : en:Chapter 5
  221. 00:34:23.603         : en:Chapter 6
  222. 00:43:23.809         : en:Chapter 7
  223. 00:50:19.016         : en:Chapter 8
  224. 00:59:19.264         : en:Chapter 9
  225. 01:05:40.311         : en:Chapter 10
  226. 01:11:05.135         : en:Chapter 11
  227. 01:21:07.362         : en:Chapter 12
  228. 01:26:29.851         : en:Chapter 13
  229. 01:34:34.919         : en:Chapter 14
  230. 01:44:15.499         : en:Chapter 15
  231. 01:50:20.780         : en:Chapter 16


复制代码
复制代码
224227jjeh6jy7hdhs3y7a.png 224228t8po8pvsth6njppv.png 224229omececcjybb7cmh4.png 224229oi6iqvv4jlj6yjzu.png 224230gc1861p6762rfo78.png 224231uuam3wbremm9aamr.png

                                




回复

使用道具 举报

蓝光币
297
发表于 2018-7-25 19:39:08 | 显示全部楼层
强烈支持楼主ing……
回复

使用道具 举报

懒得打字嘛,点击右侧快捷回复 【右侧内容,后台自定义】
您需要登录后才可以回帖 登录 | 立即加入

本版积分规则

Archiver| |网站地图

Copyright © 2024 Comsenz Inc. Powered by 蓝光电影网

本站内容由用户自主分享和转载自互联网,转载目的在于传递更多信息,并不代表本网赞同其观点和对其真实性负责。

如有侵权、违反国家法律政策行为,请联系我们,我们会第一时间及时清除和处理!

举报反馈邮箱:4k1080.com@gmail.com

快速回复 返回顶部 返回列表