找回密码

查看: 2871|回复: 4

星际迷航2:暗黑无界/星际迷航12:驶入黑暗 Star.Trek.Into.Darkness.2013.2160p.BluRay.x265.10bit.HDR.TrueHD.7.1.Atmos-TERMiNAL 22.81GB

[复制链接]
蓝光币
1982
发表于 2017-12-18 23:00:43 | 显示全部楼层 |阅读模式
224415e7u7sv3ccffvk8be.jpg
◎译  名 星际迷航2:暗黑无界/星际迷航12:驶入黑暗
◎片  名 Star Trek Into Darkness
◎年  代 2013
◎产  地 美国
◎类  别 行动/科幻/冒险
◎语  言 英语/克林贡语
◎上映日期 2013-05-16(美国)/2013-05-28(中国大陆)
◎IMDb评分7.8/10 from 427,061 users
◎IMDb链接http://www.imdb.com/title/tt1408101/
◎豆瓣评分 7.9/10 from 149,623 users
◎豆瓣链接 https://movie.douban.com/subject/3642843/
◎片  长 132分钟
◎导  演 J·J·艾布拉姆斯 J.J. Abrams
◎主  演 克里斯·派恩 Chris Pine
      扎克瑞·昆图 Zachary Quinto
      佐伊·索尔达娜 Zoe Saldana
      本尼迪克特·康伯巴奇 Benedict Cumberbatch
      西蒙·佩吉 Simon Pegg
      安东·尤金 Anton Yelchin
      卡尔·厄本 Karl Urban
      约翰·赵 John Cho
      布鲁斯·格林伍德 Bruce Greenwood
      布兰登·诺曼 Brendan Norman
      爱丽丝·伊芙 Alice Eve
      克里斯·海姆斯沃斯 Chris Hemsworth

◎简  介

  在尼比鲁星球探查时代,企业号舰长柯克(克里斯·派恩Chris Pine 饰)为救援史波克(扎克瑞·昆图 Zachary Quinto 饰)采纳了轻举妄动的行为,几近危及全舰队员的生命,他也为此支出价格。未几,柯克官复原职,而伦敦发生一路灭亡跨越四十人的可骇攻击事务。该事务的始作俑者约翰·哈里森(本尼迪克特·康伯巴奇 Benedict Cumberbatch 饰)正来自同盟内部。尔后他驾驶飞机攻击了高层会议,柯克最为恭敬的派克将军不幸遇难。为了阻止哈里森的外逃诡计,柯克重新率领企业号出发追击。危机重重的旅途,他和舰员、朋友之间的信赖也遭到庞大考验。
  当他们终极找到哈里森,才终究知晓他的实在身份,以及伦敦攻击事务背后的诡计和内幕……


  1. Video
  2. ID             : 1
  3. Format           : HEVC
  4. Format/Info          : High Efficiency Video Coding
  5. Format profile         : Main [url=mailto:10@L5.1]10@L5.1[/url]@High
  6. Codec ID           : V_MPEGH/ISO/HEVC
  7. Duration           : 2 h 12 min
  8. Bit rate           : 18.9 Mb/s
  9. Width            : 3 840 pixels
  10. Height           : 2 160 pixels
  11. Display aspect ratio       : 16:9
  12. Frame rate mode        : Constant
  13. Frame rate           : 23.976 (24000/1001) FPS
  14. Color space          : YUV
  15. Chroma subsampling       : 4:2:0 (Type 2)
  16. Bit depth          : 10 bits
  17. Bits/(Pixel*Frame)       : 0.095
  18. Stream size          : 17.4GB (77%)
  19. Writing library        : x265 2.5+58-06979c042350:[Windows][GCC 6.2.1][64 bit] 10bit
  20. Encoding settings        : cpuid=1173503 / frame-threads=4 / numa-pools=20 / wpp / no-pmode / no-pme / no-psnr / no-ssim / log-level=2 / input-csp=1 / input-res=3840x2160 / interlace=0 / total-frames=190044 / level-idc=51 / high-tier=1 / uhd-bd=1 / ref=4 / no-allow-non-conformance / repeat-headers / annexb / aud / hrd / info / hash=0 / no-temporal-layers / no-open-gop / min-keyint=1 / keyint=24 / bframes=4 / b-adapt=2 / b-pyramid / bframe-bias=0 / rc-lookahead=25 / lookahead-slices=4 / scenecut=40 / no-intra-refresh / ctu=64 / min-cu-size=8 / rect / no-amp / max-tu-size=32 / tu-inter-depth=1 / tu-intra-depth=1 / limit-tu=0 / rdoq-level=2 / dynamic-rd=0.00 / no-ssim-rd / signhide / no-tskip / nr-intra=0 / nr-inter=0 / no-constrained-intra / no-strong-intra-smoothing / max-merge=3 / limit-refs=3 / limit-modes / me=3 / subme=3 / merange=57 / temporal-mvp / weightp / no-weightb / no-analyze-src-pics / deblock=-3:-3 / no-sao / no-sao-non-deblock / rd=4 / no-early-skip / rskip / no-fast-intra / no-tskip-fast / no-cu-lossless / no-b-intra / no-splitrd-skip / rdpenalty=0 / psy-rd=2.00 / psy-rdoq=1.00 / no-rd-refine / analysis-reuse-mode=0 / no-lossless / cbqpoffs=0 / crqpoffs=0 / rc=crf / crf=17.0 / qcomp=0.60 / qpstep=4 / stats-write=0 / stats-read=0 / vbv-maxrate=160000 / vbv-bufsize=160000 / vbv-init=0.9 / crf-max=0.0 / crf-min=0.0 / ipratio=1.40 / pbratio=1.30 / aq-mode=1 / aq-strength=1.00 / cutree / zone-count=0 / no-strict-cbr / qg-size=32 / no-rc-grain / qpmax=69 / qpmin=0 / no-const-vbv / sar=1 / overscan=0 / videoformat=5 / range=0 / colorprim=9 / transfer=16 / colormatrix=9 / chromaloc=1 / chromaloc-top=2 / chromaloc-bottom=2 / display-window=0 / master-display=G(13250,34500)B(7500,3000)R(34000,16000)WP(15635,16450)L(10000000,50) / max-cll=0,0 / min-luma=0 / max-luma=1023 / log2-max-poc-lsb=8 / vui-timing-info / vui-hrd-info / slices=1 / no-opt-qp-pps / no-opt-ref-list-length-pps / no-multi-pass-opt-rps / scenecut-bias=0.05 / no-opt-cu-delta-qp / no-aq-motion / hdr / hdr-opt / no-dhdr10-opt / analysis-reuse-level=5 / scale-factor=0 / refine-intra=0 / refine-inter=0 / refine-mv=0 / no-limit-sao / ctu-info=0 / no-lowpass-dct / refine-mv-type=0 / copy-pic=1
  21. Default            : Yes
  22. Forced           : No
  23. Color range          : Limited
  24. Color primaries        : BT.2020
  25. Transfer characteristics     : PQ
  26. Matrix coefficients        : BT.2020 non-constant
  27. Mastering display color primaries  : R: x=0.680000 y=0.320000, G: x=0.265000 y=0.690000, B: x=0.150000 y=0.060000, White point: x=0.312700 y=0.329000
  28. Mastering display luminance    : min: 0.0050 cd/m2, max: 1000.0000 cd/m2

  29. Audio #1
  30. ID             : 2
  31. Format           : TrueHD
  32. Format profile         : TrueHD+Atmos / TrueHD
  33. Codec ID           : A_TRUEHD
  34. Duration           : 2 h 12 min
  35. Bit rate mode          : Variable
  36. Bit rate           : 4 839 kb/s
  37. Maximum bit rate         : 8 295 kb/s
  38. Channel(s)           : Object Based / 8 channels
  39. Channel positions        : Object Based / Front: L C R, Side: L R, Back: L R, LFE
  40. Sampling rate          :/ 48.0 kHz
  41. Frame rate           : 1 200.000 FPS (40 SPF)
  42. Compression mode         : Lossless
  43. Stream size          : 4.47GB (20%)
  44. Language           : English
  45. Default            : Yes
  46. Forced           : No

  47. Audio #2
  48. ID             : 3
  49. Format           : AC-3
  50. Format/Info          : Audio Coding 3
  51. Codec ID           : A_AC3
  52. Duration           : 2 h 12 min
  53. Bit rate mode          : Constant
  54. Bit rate           : 640 kb/s
  55. Channel(s)           : 6 channels
  56. Channel positions        : Front: L C R, Side: L R, LFE
  57. Sampling rate          : 48.0 kHz
  58. Frame rate           : 31.250 FPS (1536 SPF)
  59. Bit depth          : 16 bits
  60. Compression mode         : Lossy
  61. Stream size          : 605 MiB (3%)
  62. Language           : English
  63. Service kind         : Complete Main
  64. Default            : No
  65. Forced           : No

  66. Text #1
  67. ID             : 4
  68. Format           : PGS
  69. Muxing mode          : zlib
  70. Codec ID           : S_HDMV/PGS
  71. Codec ID/Info          : Picture based subtitle format used on BDs/HD-DVDs
  72. Duration           : 2 h 1 min
  73. Bit rate           : 40.1 kb/s
  74. Count of elements        : 3508
  75. Stream size          : 34.9 MiB (0%)
  76. Language           : English
  77. Default            : No
  78. Forced           : No

  79. Text #2
  80. ID             : 5
  81. Format           : PGS
  82. Muxing mode          : zlib
  83. Codec ID           : S_HDMV/PGS
  84. Codec ID/Info          : Picture based subtitle format used on BDs/HD-DVDs
  85. Duration           : 2 h 2 min
  86. Bit rate           : 45.3 kb/s
  87. Count of elements        : 4006
  88. Stream size          : 39.6 MiB (0%)
  89. Title            : SDH
  90. Language           : English
  91. Default            : No
  92. Forced           : No

  93. Text #3
  94. ID             : 6
  95. Format           : PGS
  96. Muxing mode          : zlib
  97. Codec ID           : S_HDMV/PGS
  98. Codec ID/Info          : Picture based subtitle format used on BDs/HD-DVDs
  99. Duration           : 2 h 2 min
  100. Bit rate           : 38.3 kb/s
  101. Count of elements        : 3546
  102. Stream size          : 33.5 MiB (0%)
  103. Language           : French
  104. Default            : No
  105. Forced           : No

  106. Text #4
  107. ID             : 7
  108. Format           : PGS
  109. Muxing mode          : zlib
  110. Codec ID           : S_HDMV/PGS
  111. Codec ID/Info          : Picture based subtitle format used on BDs/HD-DVDs
  112. Duration           : 2 h 2 min
  113. Bit rate           : 33.1 kb/s
  114. Count of elements        : 2788
  115. Stream size          : 29.0 MiB (0%)
  116. Language           : Spanish
  117. Default            : No
  118. Forced           : No

  119. Text #5
  120. ID             : 8
  121. Format           : PGS
  122. Muxing mode          : zlib
  123. Codec ID           : S_HDMV/PGS
  124. Codec ID/Info          : Picture based subtitle format used on BDs/HD-DVDs
  125. Duration           : 2 h 2 min
  126. Bit rate           : 31.7 kb/s
  127. Count of elements        : 2786
  128. Stream size          : 27.7 MiB (0%)
  129. Language           : Portuguese
  130. Default            : No
  131. Forced           : No

  132. Menu
  133. 00:00:00.000         : en:00:00:00.000
  134. 00:10:20.370         : en:00:10:20.370
  135. 00:19:21.494         : en:00:19:21.494
  136. 00:30:03.969         : en:00:30:03.969
  137. 00:40:09.115         : en:00:40:09.115
  138. 00:46:05.262         : en:00:46:05.262
  139. 00:56:38.228         : en:00:56:38.228
  140. 01:06:35.783         : en:01:06:35.783
  141. 01:12:55.663         : en:01:12:55.663
  142. 01:22:45.752         : en:01:22:45.752
  143. 01:30:54.741         : en:01:30:54.741
  144. 01:38:36.369         : en:01:38:36.369
  145. 01:47:09.548         : en:01:47:09.548
  146. 01:54:17.142         : en:01:54:17.142
  147. 01:59:20.653         : en:01:59:20.653
  148. 02:03:18.308         : en:02:03:18.308


复制代码
复制代码
224416ovqde7p3lvdsucqv.png 224417x4ax5ra313ax54az.png 224418wrj4plpqkl354kaa.png 224419q9ha4eouoe7d5lga.png 224420z6t7wn2z2mcpd129.png 224421hsy1677aef7fdmoi.png

                                


回复

使用道具 举报

蓝光币
2234
发表于 2019-3-14 23:32:35 | 显示全部楼层

这东西我收了!谢谢楼主!蓝光电影网真好!
回复

使用道具 举报

懒得打字嘛,点击右侧快捷回复 【右侧内容,后台自定义】
您需要登录后才可以回帖 登录 | 立即加入

本版积分规则

Archiver| |网站地图

Copyright © 2024 Comsenz Inc. Powered by 蓝光电影网

本站内容由用户自主分享和转载自互联网,转载目的在于传递更多信息,并不代表本网赞同其观点和对其真实性负责。

如有侵权、违反国家法律政策行为,请联系我们,我们会第一时间及时清除和处理!

举报反馈邮箱:4k1080.com@gmail.com

快速回复 返回顶部 返回列表