找回密码

查看: 5696|回复: 7

速度与激情6/狂野时速6 Fast.and.Furious.6.2013.EXTENDED.2160p.BluRay.x265.10bit.SDR.DTS-HR.7.1-SWTYBLZ 32.55GB

[复制链接]
蓝光币
1984
发表于 2017-12-18 23:01:57 | 显示全部楼层 |阅读模式
224600gq75jz880mqqm55g.jpg
◎译  名 速度与豪情6/狂野时速6
◎片  名 Furious 6
◎年  代 2013
◎产  地 美国
◎类  别 行动/犯罪/惊悚
◎语  言 英语/俄语/西班牙语/印度尼西亚语/丹麦语/粤语
◎上映日期 2013-05-24(美国)/2013-07-26(中国大陆)
◎IMDb评分7.1/10 from 327,667 users
◎IMDb链接http://www.imdb.com/title/tt1905041/
◎豆瓣评分 7.7/10 from 152,092 users
◎豆瓣链接 https://movie.douban.com/subject/6537500/
◎片  长 130分钟
◎导  演 林诣彬 Justin Lin
◎主  演 范·迪塞尔 Vin Diesel
      保罗·沃克 Paul Walker
      道恩·强森 Dwayne Johnson
      乔丹娜·布鲁斯特 Jordana Brewster
      米歇尔·罗德里格兹 Michelle Rodriguez
      泰瑞斯·吉布森 TyreseGBson
      姜成镐 Sung Kang
      盖尔·加朵 Gal Gadot
      卢达克里斯 Ludacris
      卢克·伊万斯 Luke Evans
      埃尔莎·帕塔奇 Elsa Pataky
      吉娜·卡拉诺 Gina Carano
      克拉拉·佩吉特 Clara Paget
      金·柯尔德 Kim Kold
      乔·塔斯利姆 Joe Taslim

◎简  介

  俄罗斯莫斯科闹市中心,履行押送使命的军方军队遭到一伙练习有素的强盗攻击,大战事后的现场惨绝人寰,重要的卫星元件遭到劫持。国际刑警霍布斯(道恩·强森 Dwayne Johnson 饰)查明,包括此案在内的一系列案件均系前特种军队甲士欧文·肖(卢克·伊万斯 Luke Evans 饰)所为。为了将这群练习有素、纯熟凶恶的强盗绳之于法,他辗转找到隐居世外桃源的多米尼克·托雷多(范·迪塞尔 Vin Diesel 饰)助拳。霍布斯开出的条件使人难以拒绝,他不但可以将托雷多和布莱恩(保罗·沃克 Paul Walker 饰)一伙畴前的犯罪记录一笔取消,此外欧文一伙中居然还有本活该去的拉蒂(米歇尔·罗德里格兹 Michelle Rodriguez 饰)。
  史无前例的危险战役,为了安宁普通的生活,这群亡命之徒再上疆场……



  1. Video
  2. ID             : 1
  3. Format           : HEVC
  4. Format/Info          : High Efficiency Video Coding
  5. Format profile         : Main [url=mailto:10@L5.1]10@L5.1[/url]@High
  6. Codec ID           : V_MPEGH/ISO/HEVC
  7. Duration           : 2 h 11 min
  8. Bit rate           : 31.2 Mb/s
  9. Width            : 3 840 pixels
  10. Height           : 1 632 pixels
  11. Display aspect ratio       : 2.35:1
  12. Frame rate mode        : Constant
  13. Frame rate           : 23.976 (24000/1001) FPS
  14. Color space          : YUV
  15. Chroma subsampling       : 4:2:0
  16. Bit depth          : 10 bits
  17. Bits/(Pixel*Frame)       : 0.208
  18. Stream size          : 28.6GB (88%)
  19. Title            : Fast.and.Furious.6.2013.EXTENDED.2160p.BluRay.x265.10bit.SDR.DTS-HR.7.1-SWTYBLZ
  20. Writing library        : x265 2.5+4-b4a5bcfe29c7:[Windows][GCC 4.9.3][64 bit] 10bit
  21. Encoding settings        : cpuid=1173503 / frame-threads=16 / numa-pools=24,24,24,24 / wpp / no-pmode / no-pme / no-psnr / no-ssim / log-level=2 / input-csp=1 / input-res=3840x1632 / interlace=0 / total-frames=0 / level-idc=51 / high-tier=1 / uhd-bd=0 / ref=3 / no-allow-non-conformance / repeat-headers / annexb / aud / hrd / info / hash=0 / no-temporal-layers / no-open-gop / min-keyint=1 / keyint=24 / bframes=4 / b-adapt=2 / b-pyramid / bframe-bias=0 / rc-lookahead=25 / lookahead-slices=4 / scenecut=40 / no-intra-refresh / ctu=64 / min-cu-size=8 / no-rect / no-amp / max-tu-size=32 / tu-inter-depth=1 / tu-intra-depth=1 / limit-tu=0 / rdoq-level=0 / dynamic-rd=0.00 / no-ssim-rd / signhide / no-tskip / nr-intra=0 / nr-inter=0 / no-constrained-intra / strong-intra-smoothing / max-merge=2 / limit-refs=3 / no-limit-modes / me=1 / subme=2 / merange=57 / temporal-mvp / weightp / no-weightb / no-analyze-src-pics / deblock=0:0 / no-sao / no-sao-non-deblock / rd=3 / no-early-skip / rskip / no-fast-intra / no-tskip-fast / no-cu-lossless / no-b-intra / rdpenalty=0 / psy-rd=2.00 / psy-rdoq=0.00 / no-rd-refine / analysis-reuse-mode=0 / no-lossless / cbqpoffs=0 / crqpoffs=0 / rc=crf / crf=16.0 / qcomp=0.60 / qpstep=4 / stats-write=0 / stats-read=0 / vbv-maxrate=160000 / vbv-bufsize=160000 / vbv-init=0.9 / crf-max=0.0 / crf-min=0.0 / ipratio=1.40 / pbratio=1.30 / aq-mode=1 / aq-strength=1.00 / cutree / zone-count=0 / no-strict-cbr / qg-size=32 / no-rc-grain / qpmax=69 / qpmin=0 / no-const-vbv / sar=1 / overscan=0 / videoformat=5 / range=0 / colorprim=2 / transfer=2 / colormatrix=2 / chromaloc=0 / display-window=0 / max-cll=0,0 / min-luma=0 / max-luma=1023 / log2-max-poc-lsb=8 / vui-timing-info / vui-hrd-info / slices=1 / opt-qp-pps / opt-ref-list-length-pps / no-multi-pass-opt-rps / scenecut-bias=0.05 / no-opt-cu-delta-qp / no-aq-motion / no-hdr / no-hdr-opt / no-dhdr10-opt / analysis-reuse-level=5 / scale-factor=0 / refine-intra=0 / refine-inter=0 / refine-mv=0 / no-limit-sao / ctu-info=0
  22. Language           : English
  23. Default            : Yes
  24. Forced           : No

  25. Audio #1
  26. ID             : 2
  27. Format           : DTS
  28. Format/Info          : Digital Theater Systems
  29. Format profile         : HRA / Core
  30. Codec ID           : A_DTS
  31. Duration           : 2 h 10 min
  32. Bit rate mode          : Constant
  33. Bit rate           : 3 456 kb/s / 1 509 kb/s
  34. Channel(s)           : 8 channels / 6 channels
  35. Channel positions        : Front: L C R, Side: L R, Back: L R, LFE / Front: L C R, Side: L R, LFE
  36. Sampling rate          : 48.0 kHz
  37. Frame rate           : 93.750 FPS (512 SPF)
  38. Bit depth          : 24 bits
  39. Compression mode         : Lossy
  40. Stream size          : 3.15GB (10%)
  41. Title            : Fast.and.Furious.6.2013.EXTENDED.2160p.BluRay.x265.10bit.SDR.DTS-HR.7.1-SWTYBLZ
  42. Language           : English
  43. Default            : Yes
  44. Forced           : No

  45. Audio #2
  46. ID             : 3
  47. Format           : AC-3
  48. Format/Info          : Audio Coding 3
  49. Codec ID           : A_AC3
  50. Duration           : 2 h 10 min
  51. Bit rate mode          : Constant
  52. Bit rate           : 640 kb/s
  53. Channel(s)           : 6 channels
  54. Channel positions        : Front: L C R, Side: L R, LFE
  55. Sampling rate          : 48.0 kHz
  56. Frame rate           : 31.250 FPS (1536 SPF)
  57. Bit depth          : 16 bits
  58. Compression mode         : Lossy
  59. Stream size          : 598 MiB (2%)
  60. Title            : Fast.and.Furious.6.2013.EXTENDED.2160p.BluRay.x265.10bit.SDR.DTS-HR.7.1-SWTYBLZ
  61. Language           : English
  62. Service kind         : Complete Main
  63. Default            : No
  64. Forced           : No

  65. Text #1
  66. ID             : 4
  67. Format           : UTF-8
  68. Codec ID           : S_TEXT/UTF8
  69. Codec ID/Info          : UTF-8 Plain Text
  70. Duration           : 2 h 2 min
  71. Bit rate           : 44 b/s
  72. Count of elements        : 1273
  73. Stream size          : 39.9 KiB (0%)
  74. Title            : English-SRT
  75. Language           : English
  76. Default            : Yes
  77. Forced           : No

  78. Text #2
  79. ID             : 5
  80. Format           : PGS
  81. Muxing mode          : zlib
  82. Codec ID           : S_HDMV/PGS
  83. Codec ID/Info          : Picture based subtitle format used on BDs/HD-DVDs
  84. Duration           : 2 h 3 min
  85. Bit rate           : 30.9 kb/s
  86. Count of elements        : 2940
  87. Stream size          : 27.4 MiB (0%)
  88. Title            : English-PGS
  89. Language           : English
  90. Default            : No
  91. Forced           : No

  92. Text #3
  93. ID             : 6
  94. Format           : PGS
  95. Muxing mode          : zlib
  96. Codec ID           : S_HDMV/PGS
  97. Codec ID/Info          : Picture based subtitle format used on BDs/HD-DVDs
  98. Duration           : 2 h 2 min
  99. Bit rate           : 25.4 kb/s
  100. Count of elements        : 2490
  101. Stream size          : 22.3 MiB (0%)
  102. Title            : Spanish-PGS
  103. Language           : Spanish
  104. Default            : No
  105. Forced           : No

  106. Text #4
  107. ID             : 7
  108. Format           : PGS
  109. Muxing mode          : zlib
  110. Codec ID           : S_HDMV/PGS
  111. Codec ID/Info          : Picture based subtitle format used on BDs/HD-DVDs
  112. Duration           : 2 h 2 min
  113. Bit rate           : 26.8 kb/s
  114. Count of elements        : 2512
  115. Stream size          : 23.6 MiB (0%)
  116. Title            : French-PGS
  117. Language           : French
  118. Default            : No
  119. Forced           : No

  120. Menu
  121. 00:00:00.000         : en:Chapter 1
  122. 00:04:21.010         : en:Chapter 2
  123. 00:10:19.118         : en:Chapter 3
  124. 00:15:35.267         : en:Chapter 4
  125. 00:19:18.574         : en:Chapter 5
  126. 00:24:32.721         : en:Chapter 6
  127. 00:30:23.404         : en:Chapter 7
  128. 00:36:28.477         : en:Chapter 8
  129. 00:44:01.305         : en:Chapter 9
  130. 00:50:50.255         : en:Chapter 10
  131. 00:56:54.327         : en:Chapter 11
  132. 01:04:54.056         : en:Chapter 12
  133. 01:10:14.293         : en:Chapter 13
  134. 01:19:13.456         : en:Chapter 14
  135. 01:25:41.177         : en:Chapter 15
  136. 01:34:53.771         : en:Chapter 16
  137. 01:41:48.560         : en:Chapter 17
  138. 01:48:31.838         : en:Chapter 18
  139. 01:57:48.811         : en:Chapter 19
  140. 02:03:04.418         : en:Chapter 20
复制代码
复制代码
224601p62xzk9x6jss29wy.png 224602v8ro85f1t0tcranc.png 224603ovkhfkfckva8gfs4.png 224604getvayevnm1ihm21.png 224605y6rvh6z6kiijrthr.png 224606uzcwlyry52zlhpwh.png 224607tok4oaqlk0qe0j0n.png

                                



回复

使用道具 举报

蓝光币
2398
发表于 2018-1-23 16:39:30 | 显示全部楼层
速度与激情6
回复

使用道具 举报

蓝光币
56
发表于 2018-11-5 22:14:44 | 显示全部楼层
强烈支持楼主ing……感谢楼主分享
回复

使用道具 举报

蓝光币
56
发表于 2018-11-20 22:07:42 | 显示全部楼层
谢谢分享。。。。。。。。。。。。。。。。
回复

使用道具 举报

蓝光币
56
发表于 2020-2-2 15:52:39 | 显示全部楼层
楼主发贴辛苦了,谢谢楼主分享!我觉得蓝光电影网是注册对了!
回复

使用道具 举报

蓝光币
449
发表于 2020-10-16 00:08:43 | 显示全部楼层

我看不错噢 谢谢楼主!蓝光电影网越来越好!
回复

使用道具 举报

蓝光币
23
发表于 2022-11-14 08:10:29 | 显示全部楼层

楼主太厉害了!楼主,电影应该很好看我觉得蓝光电影网真是个好地方!
回复

使用道具 举报

蓝光币
2
发表于 2023-3-1 16:16:50 | 显示全部楼层

既然你诚信诚意的推荐了,那我就勉为其难的看看吧!蓝光电影网不走平凡路。
回复

使用道具 举报

懒得打字嘛,点击右侧快捷回复 【右侧内容,后台自定义】
您需要登录后才可以回帖 登录 | 立即加入

本版积分规则

Archiver| |网站地图

Copyright © 2024 Comsenz Inc. Powered by 蓝光电影网

本站内容由用户自主分享和转载自互联网,转载目的在于传递更多信息,并不代表本网赞同其观点和对其真实性负责。

如有侵权、违反国家法律政策行为,请联系我们,我们会第一时间及时清除和处理!

举报反馈邮箱:4k1080.com@gmail.com

快速回复 返回顶部 返回列表