找回密码

查看: 3015|回复: 1

星际迷航/星际迷航11 Star.Trek.2009.2160p.BluRay.x265.10bit.SDR.DTS-HD.MA.TrueHD.7.1.Atmos-SWTYBLZ 41.45GB

[复制链接]
蓝光币
1992
发表于 2017-12-18 23:02:43 | 显示全部楼层 |阅读模式
224725fiz2hvia8vv082v8.jpg
◎译  名 星际迷航/星际迷航11/星际观光11/星空奇遇记/星际争霸战/星舰奇航记11/星舰迷航记11
◎片  名 Star Trek
◎年  代 2009
◎产  地 美国/德国
◎类  别 行动/冒险/科幻
◎语  言 英语
◎上映日期 2009-05-08(美国)/2009-05-15(中国大陆)
◎IMDb评分8.0/10 from 536,174 users
◎IMDb链接http://www.imdb.com/title/tt0796366/
◎豆瓣评分 7.9/10 from 98,547 users
◎豆瓣链接 https://movie.douban.com/subject/2132932/
◎片  长 127分钟
◎导  演 J·J·艾布拉姆斯 J.J. Abrams
◎主  演 克里斯·派恩 Chris Pine
      扎克瑞·昆图 Zachary Quinto
      伦纳德·尼莫伊 Leonard Nimoy
      艾瑞克·巴纳 Eric Bana
      布鲁斯·格林伍德 Bruce Greenwood
      卡尔·厄本 Karl Urban
      佐伊·索尔达娜 Zoe Saldana
      西蒙·佩吉 Simon Pegg
      约翰·赵 John Cho
      安东·尤金 Anton Yelchin
      本·克劳斯 Ben Cross
      薇诺娜·瑞德 Winona Ryder
      克里斯·海姆斯沃斯 Chris Hemsworth
      詹妮弗·莫里森 Jennifer Morrison

◎简  介

  故事发生在的二十三世纪,人类的科技成长已经到达了可以星际观光的境界。
  2230年诞生于瓦肯星的男孩史波克(扎克瑞·昆图 Zachary Quinto 饰),由于母亲阿曼达·格雷森(薇诺娜·赖德 Winona Ryder 饰)是人类,经常遭到同寅的嘲笑和欺侮。父亲萨瑞克(本·克劳斯 Ben Cross 饰)是瓦肯星的一位交际官,史波克从小就不竭地在严厉的瓦肯逻辑教育和他的人类感情之间挣扎。长大后的史波克碰到了一样怀着远弘愿向的柯克(克里斯·派恩 Chris Pine 饰),两人虽冲突不竭但经过各种使命考验逐步起头相互了解。
  企业号的老舰长是克里斯托弗·派克(布鲁斯·格林伍德 Bruce Greenwood 饰),舰员则包括医疗官“老骨头”麦考伊(卡尔·厄本 Karl Urban 饰)、总工程师史考特(西蒙·佩吉 Simon Pegg 饰)、通讯官乌瑚拉(佐伊·桑塔纳 Zoe Saldana 饰)、梢公苏鲁(约翰·周 John Cho 饰),以及17岁的领航员——天赋少年契柯夫(安东·尤金 Anton Yelchin 饰)。而来自未来的老年史波克(伦纳德·尼莫伊 Leonard Nimoy 饰)因穿越时空,告诉了柯克未来罗慕伦帝国的残余势力尼诺(艾瑞克·巴纳 Eric Bana 饰)也已经回到现在,并率领大队人马停止复仇,尼诺摧毁了史波克的故乡瓦肯星,下一个方针即是地球……
  本片荣获第82届奥斯卡最好化装奖。
  【媒体评价】
  30年来最使人兴奋的星际迷航电影,它标志着柯克船主新传奇的起头,假如接下来的续集勇于连结这一部的快节奏气概,势必成为未来几年最不成轻忽的票房炸弹。——《帝国》
  自《星际迷航2:可汗之怒》以后最棒的一部,在视听上的震动也远远跨越它的时代。——CinemaBlend.com
  JJ·艾布拉姆斯成功地让一个正在被人忘记的典范系列起死复生,虽然新的《星际迷航》没有它先辈的深遽,但仍然可以凭仗其无穷的活力感动观众。——Dark Horizons
  影片使人奋发,不但仅成就了该系列最为出色的时辰,毫无疑问也是科幻电影史上浓墨重彩的一笔。——《The Australian》

◎获奖情况

  第82届奥斯卡金像奖(2010)
  最好视觉结果(提名) 罗杰·盖耶特 / Russell Earl / Paul Kavanagh / Burt Dalton
  最好混音(提名) 安娜·贝尔莫 / Andy Nelson / Peter J. Devlin
  最好音效剪辑(提名) Alan Rankin / 马克·P·施特金格尔
  最好化装 Barney Burman / Mindy Hall / Joel Harlow

  第19届MTV电影奖(2010)
  MTV电影奖 冲破表演奖(提名) 克里斯·派恩

  第8届华盛顿影评人协会奖(2009)
  最好群戏(提名)
  最好艺术指导(提名)

  第9届凤凰城影评人协会奖(2009)
  最好特技表演

  第11届美国青少年挑选奖(2009)
  最好行动冒险电影(提名)
  最好行动冒险电影女演员(提名) 佐伊·索尔达娜
  最好电影反派(提名) 艾瑞克·巴纳
  Choice Movie Fresh Face Male(提名) 克里斯·派恩
  最好银幕大战(提名) 扎克瑞·昆图 / 克里斯·派恩
  最好暑期行动冒险电影(提名)



  1. Video
  2. ID             : 1
  3. Format           : HEVC
  4. Format/Info          : High Efficiency Video Coding
  5. Format profile         : Main [url=mailto:10@L5.1]10@L5.1[/url]@High
  6. Codec ID           : V_MPEGH/ISO/HEVC
  7. Duration           : 2 h 6 min
  8. Bit rate           : 36.5 Mb/s
  9. Width            : 3 840 pixels
  10. Height           : 1 600 pixels
  11. Display aspect ratio       : 2.40:1
  12. Frame rate mode        : Constant
  13. Frame rate           : 23.976 (24000/1001) FPS
  14. Color space          : YUV
  15. Chroma subsampling       : 4:2:0
  16. Bit depth          : 10 bits
  17. Bits/(Pixel*Frame)       : 0.248
  18. Stream size          : 32.3GB (79%)
  19. Title            : Star.Trek.2009.2160p.BluRay.x265.10bit.SDR.DTS-HD.MA.TrueHD.7.1.Atmos-SWTYBLZ
  20. Writing library        : x265 2.5+4-b4a5bcfe29c7:[Windows][GCC 4.9.3][64 bit] 10bit
  21. Encoding settings        : cpuid=1173503 / frame-threads=16 / numa-pools=24,24,24,24 / wpp / no-pmode / no-pme / no-psnr / no-ssim / log-level=2 / input-csp=1 / input-res=3840x1600 / interlace=0 / total-frames=0 / level-idc=51 / high-tier=1 / uhd-bd=0 / ref=3 / no-allow-non-conformance / repeat-headers / annexb / aud / hrd / info / hash=0 / no-temporal-layers / no-open-gop / min-keyint=1 / keyint=24 / bframes=4 / b-adapt=2 / b-pyramid / bframe-bias=0 / rc-lookahead=25 / lookahead-slices=4 / scenecut=40 / no-intra-refresh / ctu=64 / min-cu-size=8 / no-rect / no-amp / max-tu-size=32 / tu-inter-depth=1 / tu-intra-depth=1 / limit-tu=0 / rdoq-level=0 / dynamic-rd=0.00 / no-ssim-rd / signhide / no-tskip / nr-intra=0 / nr-inter=0 / no-constrained-intra / strong-intra-smoothing / max-merge=2 / limit-refs=3 / no-limit-modes / me=1 / subme=2 / merange=57 / temporal-mvp / weightp / no-weightb / no-analyze-src-pics / deblock=0:0 / no-sao / no-sao-non-deblock / rd=3 / no-early-skip / rskip / no-fast-intra / no-tskip-fast / no-cu-lossless / no-b-intra / rdpenalty=0 / psy-rd=2.00 / psy-rdoq=0.00 / no-rd-refine / analysis-reuse-mode=0 / no-lossless / cbqpoffs=0 / crqpoffs=0 / rc=crf / crf=20.0 / qcomp=0.60 / qpstep=4 / stats-write=0 / stats-read=0 / vbv-maxrate=160000 / vbv-bufsize=160000 / vbv-init=0.9 / crf-max=0.0 / crf-min=0.0 / ipratio=1.40 / pbratio=1.30 / aq-mode=1 / aq-strength=1.00 / cutree / zone-count=0 / no-strict-cbr / qg-size=32 / no-rc-grain / qpmax=69 / qpmin=0 / no-const-vbv / sar=1 / overscan=0 / videoformat=5 / range=0 / colorprim=2 / transfer=2 / colormatrix=2 / chromaloc=0 / display-window=0 / max-cll=0,0 / min-luma=0 / max-luma=1023 / log2-max-poc-lsb=8 / vui-timing-info / vui-hrd-info / slices=1 / opt-qp-pps / opt-ref-list-length-pps / no-multi-pass-opt-rps / scenecut-bias=0.05 / no-opt-cu-delta-qp / no-aq-motion / no-hdr / no-hdr-opt / no-dhdr10-opt / analysis-reuse-level=5 / scale-factor=0 / refine-intra=0 / refine-inter=0 / refine-mv=0 / no-limit-sao / ctu-info=0
  22. Language           : English
  23. Default            : Yes
  24. Forced           : No

  25. Audio #1
  26. ID             : 2
  27. Format           : TrueHD
  28. Format profile         : TrueHD+Atmos / TrueHD
  29. Codec ID           : A_TRUEHD
  30. Duration           : 2 h 6 min
  31. Bit rate mode          : Variable
  32. Bit rate           : 4 995 kb/s
  33. Maximum bit rate         : 8 337 kb/s
  34. Channel(s)           : Object Based / 8 channels
  35. Channel positions        : Object Based / Front: L C R, Side: L R, Back: L R, LFE
  36. Sampling rate          :/ 48.0 kHz
  37. Frame rate           : 1 200.000 FPS (40 SPF)
  38. Compression mode         : Lossless
  39. Stream size          : 4.42GB (11%)
  40. Title            : Star.Trek.2009.2160p.BluRay.x265.10bit.SDR.DTS-HD.MA.TrueHD.7.1.Atmos-SWTYBLZ
  41. Language           : English
  42. Default            : Yes
  43. Forced           : No

  44. Audio #2
  45. ID             : 3
  46. Format           : DTS
  47. Format/Info          : Digital Theater Systems
  48. Format profile         : MA / Core
  49. Codec ID           : A_DTS
  50. Duration           : 2 h 6 min
  51. Bit rate mode          : Variable / Constant
  52. Bit rate           : 4 154 kb/s / 1 509 kb/s
  53. Channel(s)           : 8 channels / 6 channels
  54. Channel positions        : Front: L C R, Side: L R, Back: L R, LFE / Front: L C R, Side: L R, LFE
  55. Sampling rate          : 48.0 kHz
  56. Frame rate           : 93.750 FPS (512 SPF)
  57. Bit depth          : 24 bits
  58. Compression mode         : Lossless / Lossy
  59. Stream size          : 3.68GB (9%)
  60. Title            : Star.Trek.2009.2160p.BluRay.x265.10bit.SDR.DTS-HD.MA.TrueHD.7.1.Atmos-SWTYBLZ
  61. Language           : English
  62. Default            : No
  63. Forced           : No

  64. Audio #3
  65. ID             : 4
  66. Format           : AC-3
  67. Format/Info          : Audio Coding 3
  68. Codec ID           : A_AC3
  69. Duration           : 2 h 6 min
  70. Bit rate mode          : Constant
  71. Bit rate           : 640 kb/s
  72. Channel(s)           : 6 channels
  73. Channel positions        : Front: L C R, Side: L R, LFE
  74. Sampling rate          : 48.0 kHz
  75. Frame rate           : 31.250 FPS (1536 SPF)
  76. Bit depth          : 16 bits
  77. Compression mode         : Lossy
  78. Stream size          : 581 MiB (1%)
  79. Title            : Star.Trek.2009.2160p.BluRay.x265.10bit.SDR.DTS-HD.MA.TrueHD.7.1.Atmos-SWTYBLZ
  80. Language           : English
  81. Service kind         : Complete Main
  82. Default            : No
  83. Forced           : No

  84. Text #1
  85. ID             : 5
  86. Format           : UTF-8
  87. Codec ID           : S_TEXT/UTF8
  88. Codec ID/Info          : UTF-8 Plain Text
  89. Duration           : 1 h 57 min
  90. Bit rate           : 63 b/s
  91. Count of elements        : 1345
  92. Stream size          : 54.6 KiB (0%)
  93. Title            : English-SRT
  94. Language           : English
  95. Default            : Yes
  96. Forced           : No

  97. Text #2
  98. ID             : 6
  99. Format           : PGS
  100. Muxing mode          : zlib
  101. Codec ID           : S_HDMV/PGS
  102. Codec ID/Info          : Picture based subtitle format used on BDs/HD-DVDs
  103. Duration           : 1 h 57 min
  104. Bit rate           : 38.5 kb/s
  105. Count of elements        : 2634
  106. Stream size          : 32.2 MiB (0%)
  107. Title            : English-PGS
  108. Language           : English
  109. Default            : No
  110. Forced           : No

  111. Text #3
  112. ID             : 7
  113. Format           : PGS
  114. Muxing mode          : zlib
  115. Codec ID           : S_HDMV/PGS
  116. Codec ID/Info          : Picture based subtitle format used on BDs/HD-DVDs
  117. Duration           : 1 h 57 min
  118. Bit rate           : 43.6 kb/s
  119. Count of elements        : 3192
  120. Stream size          : 36.6 MiB (0%)
  121. Title            : English--SDH-PGS
  122. Language           : English
  123. Default            : No
  124. Forced           : No

  125. Text #4
  126. ID             : 8
  127. Format           : PGS
  128. Muxing mode          : zlib
  129. Codec ID           : S_HDMV/PGS
  130. Codec ID/Info          : Picture based subtitle format used on BDs/HD-DVDs
  131. Duration           : 2 h 5 min
  132. Bit rate           : 35.3 kb/s
  133. Count of elements        : 2660
  134. Stream size          : 31.6 MiB (0%)
  135. Title            : French-PGS
  136. Language           : French
  137. Default            : No
  138. Forced           : No

  139. Text #5
  140. ID             : 9
  141. Format           : PGS
  142. Muxing mode          : zlib
  143. Codec ID           : S_HDMV/PGS
  144. Codec ID/Info          : Picture based subtitle format used on BDs/HD-DVDs
  145. Duration           : 1 h 57 min
  146. Bit rate           : 31.7 kb/s
  147. Count of elements        : 2610
  148. Stream size          : 26.6 MiB (0%)
  149. Title            : Spanish-PGS
  150. Language           : Spanish
  151. Default            : No
  152. Forced           : No

  153. Text #6
  154. ID             : 10
  155. Format           : PGS
  156. Muxing mode          : zlib
  157. Codec ID           : S_HDMV/PGS
  158. Codec ID/Info          : Picture based subtitle format used on BDs/HD-DVDs
  159. Duration           : 2 h 5 min
  160. Bit rate           : 29.1 kb/s
  161. Count of elements        : 2586
  162. Stream size          : 26.1 MiB (0%)
  163. Title            : Portuguese-PGS
  164. Language           : Portuguese
  165. Default            : No
  166. Forced           : No

  167. Menu
  168. 00:00:00.000         : en:Chapter 1
  169. 00:11:57.216         : en:Chapter 2
  170. 00:19:45.100         : en:Chapter 3
  171. 00:28:09.396         : en:Chapter 4
  172. 00:35:33.506         : en:Chapter 5
  173. 00:44:10.397         : en:Chapter 6
  174. 00:52:21.721         : en:Chapter 7
  175. 01:01:33.606         : en:Chapter 8
  176. 01:11:40.087         : en:Chapter 9
  177. 01:20:39.501         : en:Chapter 10
  178. 01:27:35.291         : en:Chapter 11
  179. 01:36:29.575         : en:Chapter 12
  180. 01:44:34.268         : en:Chapter 13
  181. 01:53:13.411         : en:Chapter 14
  182. 01:58:20.551         : en:Chapter 15
复制代码
复制代码
224725hvl4ogfvrg9amfi3.png 224726ewd96q67wdkwluaf.png 224727olenql1dl23l68e0.png 224728yrxvvp0exrarzer6.png 224729w7v73uslaaave37z.png 224730nt7u1355g0up3gp4.png

                                





回复

使用道具 举报

蓝光币
1019
发表于 2017-12-21 15:59:17 | 显示全部楼层
感谢楼主分享,谢谢!
回复

使用道具 举报

懒得打字嘛,点击右侧快捷回复 【右侧内容,后台自定义】
您需要登录后才可以回帖 登录 | 立即加入

本版积分规则

Archiver| |网站地图

Copyright © 2024 Comsenz Inc. Powered by 蓝光电影网

本站内容由用户自主分享和转载自互联网,转载目的在于传递更多信息,并不代表本网赞同其观点和对其真实性负责。

如有侵权、违反国家法律政策行为,请联系我们,我们会第一时间及时清除和处理!

举报反馈邮箱:4k1080.com@gmail.com

快速回复 返回顶部 返回列表