找回密码

查看: 2517|回复: 1

饥饿游戏 The.Hunger.Games.2012.2160p.BluRay.x265.10bit.HDR.TrueHD.7.1.Atmos-TERMiNAL 25.42GB

[复制链接]
蓝光币
1982
发表于 2017-12-19 09:52:41 | 显示全部楼层 |阅读模式
093839so2pjai5uhzj4aho.jpg
◎译  名 饥饿游戏
◎片  名 The Hunger Games
◎年  代 2012
◎产  地 美国
◎类  别 行动/科幻/冒险
◎语  言 英语
◎上映日期 2012-03-23(美国)/2012-06-14(中国大陆)
◎IMDb评分7.2/10 from 754,899 users
◎IMDb链接http://www.imdb.com/title/tt1392170/
◎豆瓣评分 6.7/10 from 213,319 users
◎豆瓣链接 https://movie.douban.com/subject/3592853/
◎片  长 142分钟
◎导  演 加里·罗斯 Gary Ross
◎主  演 詹妮弗·劳伦斯 Jennifer Lawrence
      乔什·哈切森 Josh Hutcherson
      利亚姆·海姆斯沃斯 Liam Hemsworth
      韦斯·本特利 Wes Bentley
      伊丽莎白·班克斯 Elizabeth Banks
      史坦利·图齐 Stanley Tucci
      伍迪·哈里森 Woody Harrelson
      伊莎贝拉·弗尔曼 Isabelle Fuhrman
      阿曼德拉·斯坦伯格Amandla Stenberg
      维罗·希尔兹 Willow Shields
      唐纳德·萨瑟兰 Donald Sutherland
      亚历山大·路德韦格 Alexander Ludwig
      莱文·兰宾 Leven Rambin
      杰克·奎德 Jack Quaid

◎简  介

  北美洲在一场大战后被摧毁,在美国本来的废墟上,人们建立了新的故里,但新政权规定:管辖下的12个地域每年都必须进贡少年男女,加入一档电视直播节目“饥饿游戏”(Hunger Game)。节目标法则很简单——杀人大概被杀。凯妮丝Katniss Everdeen(詹妮弗·劳伦斯 Jennifer Lawrence 饰)的妹妹不幸在12区“挑选日”时被选中,由于要庇护妹妹,凯妮丝自告奋勇要替妹妹上场 。她不能不与心上人盖尔Gale Hawthorne(利亚姆·海姆斯沃斯 Liam Hemsworth 饰)分隔,跟同时被选为12区贡品代表的皮塔Peeta Mellark(乔什·哈切森 Josh Hutcherson 饰)进入游戏。虽然凯妮丝自小就停止狩猎,具有过人的弓箭技能,对节目里的重重障碍都能对付自若,但她在角逐中要与残暴强健的他区选手相互周旋,要想成为最初的赢家就必须成为一个没有人性的杀人机械,这对她是一个极大的考验。
  《饥饿游戏》是美国作家苏珊·柯林斯(Suzanne Collins)同名青少年科幻小说三部曲中的第一部(其他两部别离名为《星火燎原 Catching Fire》和《自在梦幻 Mockingjay》)。

◎获奖情况

  第70届金球奖(2013)
  电影类 最好原创歌曲(提名)

  第21届MTV电影奖(2012)
  MTV电影奖 年度电影(提名)
  MTV电影奖 最好女演员 詹妮弗·劳伦斯
  MTV电影奖 最好男演员 乔什·哈切森
  MTV电影奖 冲破表演奖(提名) 利亚姆·海姆斯沃斯
  MTV电影奖 最好吻戏(提名) 詹妮弗·劳伦斯 / 乔什·哈切森
  MTV电影奖 最好打架 詹妮弗·劳伦斯 / 乔什·哈切森 / 亚历山大·路德韦格
  MTV电影奖 最好银幕形象改变 伊丽莎白·班克斯
  MTV电影奖 最好卡司声势(提名)
  MTV电影奖 最好豪杰形象(提名) 詹妮弗·劳伦斯

  第78届纽约影评人协会奖(2012)
  最好女配角(提名) 詹妮弗·劳伦斯

  第18届美国批评家挑选电影奖(2013)
  行动片最好女配角 詹妮弗·劳伦斯

  第14届美国青少年挑选奖(2012)
  最好科幻/奇异电影
  最好科幻/奇异电影男演员 乔什·哈切森
  最好科幻/奇异电影女演员 詹妮弗·劳伦斯
  最好电影反派 亚历山大·路德韦格
  最抢戏电影男星 利亚姆·海姆斯沃斯
  最抢戏电影女星(提名) 伊丽莎白·班克斯
  最好银幕拍档 詹妮弗·劳伦斯 / 阿曼德拉·斯坦伯格
  最好电影吻戏 詹妮弗·劳伦斯 / 乔什·哈切森
  最好电影打架(提名) 詹妮弗·劳伦斯 / 乔什·哈切森 / 亚历山大·路德韦格

  第3届豆瓣电影鑫像奖(2013)
  鑫豆单元 最好歌曲(提名)
  鑫豆单元 最好落选影片(提名)


  1. Video
  2. ID             : 1
  3. Format           : HEVC
  4. Format/Info          : High Efficiency Video Coding
  5. Format profile         : Main [url=mailto:10@L5.1]10@L5.1[/url]@High
  6. Codec ID           : V_MPEGH/ISO/HEVC
  7. Duration           : 2 h 22 min
  8. Bit rate           : 20.2 Mb/s
  9. Width            : 3 840 pixels
  10. Height           : 1 604 pixels
  11. Display aspect ratio       : 2.40:1
  12. Frame rate mode        : Constant
  13. Frame rate           : 23.976 (24000/1001) FPS
  14. Color space          : YUV
  15. Chroma subsampling       : 4:2:0 (Type 2)
  16. Bit depth          : 10 bits
  17. Bits/(Pixel*Frame)       : 0.137
  18. Stream size          : 20.1GB (80%)
  19. Writing library        : x265 2.5+58-06979c042350:[Windows][GCC 6.2.1][64 bit] 10bit
  20. Encoding settings        : cpuid=1173503 / frame-threads=4 / numa-pools=16 / wpp / no-pmode / no-pme / no-psnr / no-ssim / log-level=2 / input-csp=1 / input-res=3840x1604 / interlace=0 / total-frames=205011 / level-idc=51 / high-tier=1 / uhd-bd=0 / ref=4 / no-allow-non-conformance / repeat-headers / annexb / aud / hrd / info / hash=0 / no-temporal-layers / no-open-gop / min-keyint=1 / keyint=24 / bframes=4 / b-adapt=2 / b-pyramid / bframe-bias=0 / rc-lookahead=25 / lookahead-slices=4 / scenecut=40 / no-intra-refresh / ctu=64 / min-cu-size=8 / rect / no-amp / max-tu-size=32 / tu-inter-depth=1 / tu-intra-depth=1 / limit-tu=0 / rdoq-level=2 / dynamic-rd=0.00 / no-ssim-rd / signhide / no-tskip / nr-intra=0 / nr-inter=0 / no-constrained-intra / no-strong-intra-smoothing / max-merge=3 / limit-refs=3 / limit-modes / me=3 / subme=3 / merange=57 / temporal-mvp / weightp / no-weightb / no-analyze-src-pics / deblock=-3:-3 / no-sao / no-sao-non-deblock / rd=4 / no-early-skip / rskip / no-fast-intra / no-tskip-fast / no-cu-lossless / no-b-intra / no-splitrd-skip / rdpenalty=0 / psy-rd=2.00 / psy-rdoq=1.00 / no-rd-refine / analysis-reuse-mode=0 / no-lossless / cbqpoffs=0 / crqpoffs=0 / rc=crf / crf=17.0 / qcomp=0.60 / qpstep=4 / stats-write=0 / stats-read=0 / vbv-maxrate=160000 / vbv-bufsize=160000 / vbv-init=0.9 / crf-max=0.0 / crf-min=0.0 / ipratio=1.40 / pbratio=1.30 / aq-mode=1 / aq-strength=1.00 / cutree / zone-count=0 / no-strict-cbr / qg-size=32 / no-rc-grain / qpmax=69 / qpmin=0 / no-const-vbv / sar=1 / overscan=0 / videoformat=5 / range=0 / colorprim=9 / transfer=16 / colormatrix=9 / chromaloc=1 / chromaloc-top=2 / chromaloc-bottom=2 / display-window=0 / master-display=G(13250,34500)B(7500,3000)R(34000,16000)WP(15635,16450)L(10000000,0) / max-cll=558,230 / min-luma=0 / max-luma=1023 / log2-max-poc-lsb=8 / vui-timing-info / vui-hrd-info / slices=1 / no-opt-qp-pps / no-opt-ref-list-length-pps / no-multi-pass-opt-rps / scenecut-bias=0.05 / no-opt-cu-delta-qp / no-aq-motion / hdr / hdr-opt / no-dhdr10-opt / analysis-reuse-level=5 / scale-factor=0 / refine-intra=0 / refine-inter=0 / refine-mv=0 / no-limit-sao / ctu-info=0 / no-lowpass-dct / refine-mv-type=0 / copy-pic=1
  21. Default            : Yes
  22. Forced           : No
  23. Color range          : Limited
  24. Color primaries        : BT.2020
  25. Transfer characteristics     : PQ
  26. Matrix coefficients        : BT.2020 non-constant
  27. Mastering display color primaries  : R: x=0.680000 y=0.320000, G: x=0.265000 y=0.690000, B: x=0.150000 y=0.060000, White point: x=0.312700 y=0.329000
  28. Mastering display luminance    : min: 0.0000 cd/m2, max: 1000.0000 cd/m2
  29. Maximum Content Light Level    : 558 cd/m2
  30. Maximum Frame-Average Light Level  : 230 cd/m2

  31. Audio #1
  32. ID             : 2
  33. Format           : TrueHD
  34. Format profile         : TrueHD+Atmos / TrueHD
  35. Codec ID           : A_TRUEHD
  36. Duration           : 2 h 22 min
  37. Bit rate mode          : Variable
  38. Bit rate           : 4 133 kb/s
  39. Maximum bit rate         : 8 238 kb/s
  40. Channel(s)           : Object Based / 8 channels
  41. Channel positions        : Object Based / Front: L C R, Side: L R, Back: L R, LFE
  42. Sampling rate          :/ 48.0 kHz
  43. Frame rate           : 1 200.000 FPS (40 SPF)
  44. Compression mode         : Lossless
  45. Stream size          : 4.11GB (16%)
  46. Language           : English
  47. Default            : Yes
  48. Forced           : No

  49. Audio #2
  50. ID             : 3
  51. Format           : AC-3
  52. Format/Info          : Audio Coding 3
  53. Codec ID           : A_AC3
  54. Duration           : 2 h 22 min
  55. Bit rate mode          : Constant
  56. Bit rate           : 640 kb/s
  57. Channel(s)           : 6 channels
  58. Channel positions        : Front: L C R, Side: L R, LFE
  59. Sampling rate          : 48.0 kHz
  60. Frame rate           : 31.250 FPS (1536 SPF)
  61. Bit depth          : 16 bits
  62. Compression mode         : Lossy
  63. Stream size          : 652 MiB (3%)
  64. Language           : English
  65. Service kind         : Complete Main
  66. Default            : No
  67. Forced           : No

  68. Audio #3
  69. ID             : 4
  70. Format           : AC-3
  71. Format/Info          : Audio Coding 3
  72. Codec ID           : A_AC3
  73. Duration           : 2 h 22 min
  74. Bit rate mode          : Constant
  75. Bit rate           : 224 kb/s
  76. Channel(s)           : 2 channels
  77. Channel positions        : Front: L R
  78. Sampling rate          : 48.0 kHz
  79. Frame rate           : 31.250 FPS (1536 SPF)
  80. Bit depth          : 16 bits
  81. Compression mode         : Lossy
  82. Stream size          : 228 MiB (1%)
  83. Title            : Commentary with editor Stephen Mirrione, visual effects supervisor Sheena Duggal, and sound designer Lon Bender
  84. Language           : English
  85. Service kind         : Complete Main
  86. Default            : No
  87. Forced           : No

  88. Text #1
  89. ID             : 5
  90. Format           : PGS
  91. Muxing mode          : zlib
  92. Codec ID           : S_HDMV/PGS
  93. Codec ID/Info          : Picture based subtitle format used on BDs/HD-DVDs
  94. Duration           : 2 h 11 min
  95. Bit rate           : 22.3 kb/s
  96. Count of elements        : 2196
  97. Stream size          : 21.0 MiB (0%)
  98. Language           : English
  99. Default            : No
  100. Forced           : No

  101. Text #2
  102. ID             : 6
  103. Format           : PGS
  104. Muxing mode          : zlib
  105. Codec ID           : S_HDMV/PGS
  106. Codec ID/Info          : Picture based subtitle format used on BDs/HD-DVDs
  107. Duration           : 2 h 11 min
  108. Bit rate           : 25.3 kb/s
  109. Count of elements        : 2500
  110. Stream size          : 23.8 MiB (0%)
  111. Title            : SDH
  112. Language           : English
  113. Default            : No
  114. Forced           : No

  115. Text #3
  116. ID             : 7
  117. Format           : PGS
  118. Muxing mode          : zlib
  119. Codec ID           : S_HDMV/PGS
  120. Codec ID/Info          : Picture based subtitle format used on BDs/HD-DVDs
  121. Duration           : 2 h 11 min
  122. Bit rate           : 19.9 kb/s
  123. Count of elements        : 2224
  124. Stream size          : 18.8 MiB (0%)
  125. Language           : Spanish
  126. Default            : No
  127. Forced           : No

  128. Menu
  129. 00:00:00.000         : en:00:00:00.000
  130. 00:10:04.020         : en:00:10:04.020
  131. 00:17:58.035         : en:00:17:58.035
  132. 00:25:04.086         : en:00:25:04.086
  133. 00:31:10.869         : en:00:31:10.869
  134. 00:43:26.771         : en:00:43:26.771
  135. 00:50:36.909         : en:00:50:36.909
  136. 00:56:57.122         : en:00:56:57.122
  137. 01:06:55.970         : en:01:06:55.970
  138. 01:15:57.178         : en:01:15:57.178
  139. 01:22:04.253         : en:01:22:04.253
  140. 01:28:58.625         : en:01:28:58.625
  141. 01:37:58.956         : en:01:37:58.956
  142. 01:43:17.400         : en:01:43:17.400
  143. 01:57:54.818         : en:01:57:54.818
  144. 02:09:24.757         : en:02:09:24.757


复制代码
复制代码
093839xs3a4lyy00tlios0.png 093840s95m1dlfmfxxsww6.png 093840px1ixxsdxg9d342r.png 093841yelee17evvv2n0pp.png 093841nct6alljc4ate6oq.png 093842x0d5dj11wowwn85j.png

                                




回复

使用道具 举报

懒得打字嘛,点击右侧快捷回复 【右侧内容,后台自定义】
您需要登录后才可以回帖 登录 | 立即加入

本版积分规则

Archiver| |网站地图

Copyright © 2024 Comsenz Inc. Powered by 蓝光电影网

本站内容由用户自主分享和转载自互联网,转载目的在于传递更多信息,并不代表本网赞同其观点和对其真实性负责。

如有侵权、违反国家法律政策行为,请联系我们,我们会第一时间及时清除和处理!

举报反馈邮箱:4k1080.com@gmail.com

快速回复 返回顶部 返回列表