找回密码

查看: 5657|回复: 0

[剧情] 猫咪后院之家/猫咪收集之家[内封中字] Neko.Atsume.House.2017.1080p.BluRay.x264-WiKi 7.00GB

[复制链接]
蓝光币
1984
发表于 2017-12-19 10:35:49 | 显示全部楼层 |阅读模式
p2416085672.jpg                
◎译  名 猫咪后院之家 / 猫咪收集之家
◎片  名 猫咪后院之家 ねこあつめの家
◎年  代 2017
◎国  家 日本
◎类  别 剧情
◎语  言 日语
◎上映日期 2017-04-08(日本)
◎IMDb评分  6.1/10 from 15 users
◎IMDb链接  http://www.imdb.com/title/tt6227846/
◎豆瓣评分 6.8/10 from 224 users
◎豆瓣链接 https://movie.douban.com/subject/26954690/
◎片  长 92分钟
◎导  演 藏方政俊
◎主  演 伊藤淳史 Atsushi It?
      忽那汐里 Kutsuna Shiori
      户田昌宏 Masahiro Toda
      大久保佳代子
      青户浩香
      木村多江 Tae Kimura

◎简  介 

  若くして新人賞を取り、ベストセラー作家になった小説家、佐久本勝。
  だが比来、まったく小説が書けなくなってしまっている。心機一転、のどかな地盘に移住するも、調子は上がらない。
  ある日、途方に暮れて縁側で庭を眺めていると1匹の猫がやってくる。
  話しかけると、ぷいっと行ってしまう猫。猫にまで見放されたよと落ち込む。
  その晩、ドライフードを庭の隅に置いて眠りについた。翌朝、エサが無くなっていた。
  俄然興味が湧いてくる佐久本。こうして若き小説家の「ねこあつめ」が始まった―。



  1. Video
  2. ID                                       : 1
  3. Format                                   : AVC
  4. Format/Info                              : Advanced Video Codec
  5. Format profile                           : [url=mailto:High@L4.1]High@L4.1[/url]
  6. Format settings, CABAC                   : Yes
  7. Format settings, ReFrames                : 4 frames
  8. Codec ID                                 : V_MPEG4/ISO/AVC
  9. Duration                                 : 1 h 32 min
  10. Bit rate                                 : 10.3 Mb/s
  11. Width                                    : 1 920 pixels
  12. Height                                   : 1 036 pixels
  13. Display aspect ratio                     : 1.85:1
  14. Frame rate mode                          : Constant
  15. Frame rate                               : 23.976 (24000/1001) FPS
  16. Color space                              : YUV
  17. Chroma subsampling                       : 4:2:0
  18. Bit depth                                : 8 bits
  19. Scan type                                : Progressive
  20. Bits/(Pixel*Frame)                       : 0.215
  21. Stream size                              : 6.58GB (94%)
  22. Writing library                          : x264 core 129 r2245+704+36 8e61944 tMod+MixAQ [8-bit@4:2:0 X86_64]
  23. Encoding settings                        : cabac=1 / ref=4 / deblock=1:-3:-3 / analyse=0x3:0x133 / me=umh / subme=11 / psy=1 / fade_compensate=0.00 / psy_rd=1.05:0.10 / mixed_ref=1 / me_range=64 / chroma_me=1 / trellis=2 / 8x8dct=1 / cqm=0 / deadzone=21,11 / fast_pskip=0 / chroma_qp_offset=-3 / threads=18 / lookahead_threads=3 / sliced_threads=0 / nr=0 / decimate=0 / interlaced=0 / bluray_compat=0 / constrained_intra=0 / fgo=0 / bframes=10 / b_pyramid=2 / b_adapt=2 / b_bias=0 / direct=3 / weightb=1 / open_gop=0 / weightp=2 / keyint=250 / keyint_min=23 / scenecut=40 / intra_refresh=0 / rc=2pass / mbtree=0 / bitrate=10254 / ratetol=1.0 / qcomp=0.70 / qpmin=0 / qpmax=69 / qpstep=4 / cplxblur=20.0 / qblur=0.5 / ip_ratio=1.40 / pb_ratio=1.30 / aq=1 / aq-strength=0.90 / aq-sensitivity=10.00 / aq-ifactor=1.00 / aq-pfactor=1.00 / aq-bfactor=1.00 / aq2=0
  24. Language                                 : Japanese
  25. Default                                  : Yes
  26. Forced                                   : No

  27. Audio
  28. ID                                       : 2
  29. Format                                   : AC-3
  30. Format/Info                              : Audio Coding 3
  31. Format settings, Endianness              : Big
  32. Codec ID                                 : A_AC3
  33. Duration                                 : 1 h 32 min
  34. Bit rate mode                            : Constant
  35. Bit rate                                 : 640 kb/s
  36. Channel(s)                               : 6 channels
  37. Channel positions                        : Front: L C R, Side: L R, LFE
  38. Sampling rate                            : 48.0 kHz
  39. Frame rate                               : 31.250 FPS (1536 spf)
  40. Bit depth                                : 16 bits
  41. Compression mode                         : Lossy
  42. Stream size                              : 421 MiB (6%)
  43. Language                                 : Japanese
  44. Service kind                             : Complete Main
  45. Default                                  : Yes
  46. Forced                                   : No

  47. Text #1
  48. ID                                       : 3
  49. Format                                   : ASS
  50. Codec ID                                 : S_TEXT/ASS
  51. Codec ID/Info                            : Advanced Sub Station Alpha
  52. Duration                                 : 1 h 26 min
  53. Bit rate                                 : 46 b/s
  54. Count of elements                        : 634
  55. Compression mode                         : Lossless
  56. Stream size                              : 29.2 KiB (0%)
  57. Title                                    : Simplified
  58. Language                                 : Chinese
  59. Default                                  : Yes
  60. Forced                                   : No

  61. Text #2
  62. ID                                       : 4
  63. Format                                   : ASS
  64. Codec ID                                 : S_TEXT/ASS
  65. Codec ID/Info                            : Advanced Sub Station Alpha
  66. Duration                                 : 1 h 26 min
  67. Bit rate                                 : 46 b/s
  68. Count of elements                        : 634
  69. Compression mode                         : Lossless
  70. Stream size                              : 29.2 KiB (0%)
  71. Title                                    : Traditional
  72. Language                                 : Chinese
  73. Default                                  : No
  74. Forced                                   : No

  75. Menu
  76. 00:00:00.000                             : en:00:00:00.000
  77. 00:00:49.048                             : en:00:00:49.048
  78. 00:11:09.919                             : en:00:11:09.919
  79. 00:18:29.191                             : en:00:18:29.191
  80. 00:27:07.459                             : en:00:27:07.459
  81. 00:34:14.719                             : en:00:34:14.719
  82. 00:40:37.726                             : en:00:40:37.726
  83. 00:43:21.223                             : en:00:43:21.223
  84. 00:48:36.455                             : en:00:48:36.455
  85. 00:59:44.914                             : en:00:59:44.914
  86. 01:04:09.887                             : en:01:04:09.887
  87. 01:14:24.126                             : en:01:14:24.126
  88. 01:21:38.226                             : en:01:21:38.226
  89. 01:23:43.226                             : en:01:23:43.226
  90. 01:27:39.170                             : en:01:27:39.170


复制代码
复制代码
猫咪后院之家/猫咪收集之家[内封中字] Neko.Atsume.House.2017.1080p.BluRay.x264-WiKi 7.00GB-1.png
猫咪后院之家/猫咪收集之家[内封中字] Neko.Atsume.House.2017.1080p.BluRay.x264-WiKi 7.00GB-2.png 猫咪后院之家/猫咪收集之家[内封中字] Neko.Atsume.House.2017.1080p.BluRay.x264-WiKi 7.00GB-3.png 猫咪后院之家/猫咪收集之家[内封中字] Neko.Atsume.House.2017.1080p.BluRay.x264-WiKi 7.00GB-4.png 猫咪后院之家/猫咪收集之家[内封中字] Neko.Atsume.House.2017.1080p.BluRay.x264-WiKi 7.00GB-5.png 猫咪后院之家/猫咪收集之家[内封中字] Neko.Atsume.House.2017.1080p.BluRay.x264-WiKi 7.00GB-6.png

  





回复

使用道具 举报

懒得打字嘛,点击右侧快捷回复 【右侧内容,后台自定义】
您需要登录后才可以回帖 登录 | 立即加入

本版积分规则

Archiver| |网站地图

Copyright © 2024 Comsenz Inc. Powered by 蓝光电影网

本站内容由用户自主分享和转载自互联网,转载目的在于传递更多信息,并不代表本网赞同其观点和对其真实性负责。

如有侵权、违反国家法律政策行为,请联系我们,我们会第一时间及时清除和处理!

举报反馈邮箱:4k1080.com@gmail.com

快速回复 返回顶部 返回列表