找回密码

查看: 3583|回复: 1

[惊悚] 莱姆豪斯的杀人魔.The.Limehouse.Golem.2016.1080p.BluRay.DTS.x264-Manning 10.1GB

[复制链接]
蓝光币
1984
发表于 2017-12-19 14:57:02 | 显示全部楼层 |阅读模式
091325ltou595vp6a86a6k.jpg

◎译  名 莱姆豪斯的杀人魔 / 英倫謎殺
◎片  名 莱姆豪斯的杀人魔 The Limehouse Golem
◎年  代 2016
◎国  家 英国
◎类  别 惊悚 / 可骇
◎语  言 英语
◎上映日期 2016-09-10(多伦多电影节) / 2017-09-01(英国)
◎IMDB 6.3 分 / (总分10分 | 共 3808 人评分)
◎IMDB http://www.imdb.com/title/tt4733640
◎豆瓣评分 6.8 分 / (总分10分 | 共 482 人评分)
◎豆瓣链接 https://movie.douban.com/subject/26616731
◎片  长 105分钟
◎导  演 胡安·卡洛斯·梅迪纳
◎主  演 比尔·奈伊 Bill Nighy
       奥利维亚·库克 Olivia Cooke
       道格拉斯·布斯 Douglas Booth
       丹尼尔·梅斯 Daniel Mays
       埃迪·马森 Eddie Marsan
       玛丽亚·巴尔维德 María Valverde
       萨姆·里德 Sam Reid
       摩根·华金斯 Morgan Watkins
       亚当·布朗 Adam Brown
       彼得·苏利文 Peter Sullivan
       阿梅利亚·克劳奇 Amelia Crouch
       达米安·托马斯 Damien Thomas
       迈克尔·吉恩 Michael Jenn
       西蒙·米考克 Simon Meacock
       马克·坦迪 Mark Tandy
◎简  介 
  改编自彼得·克罗伊德小说《丹·雷诺和莱姆豪斯的杀人魔》。报告1880年伦敦的莱姆豪斯区发生谋杀案,人们以为这是古须生物石伟人所为,但真相还有隐情。
General
Unique ID                      : 246802921209814717454301351842043190508 (0xB9AC837D636329FFBE6C9F7650DCDCEC)
Complete name                  : The.Limehouse.Golem.2016.1080p.BluRay.DTS.x264-Manning.mkv
Format                         : Matroska
Format version                 : Version 4 / Version 2
File size                      : 10.1GB
Duration                       : 1 h 48 min
Overall bit rate               : 13.3 Mb/s
Movie name                     : Manning
Encoded date                   : UTC 2017-10-03 21:27:50
Writing application            : mkvmerge v8.0.0 ( Til The Day That I Die ) 32bit
Writing library                : libebml v1.3.1 + libmatroska v1.4.2
Video
ID                             : 4
Format                         : AVC
Format/Info                    : Advanced Video Codec
Format profile                 : High@L4.1
Format settings, CABAC         : Yes
Format settings, ReFrames      : 5 frames
Codec ID                       : V_MPEG4/ISO/AVC
Duration                       : 1 h 48 min
Bit rate                       : 12.5 Mb/s
Width                          : 1 920 pixels
Height                         : 800 pixels
Display aspect ratio           : 2.40:1
Frame rate mode                : Constant
Frame rate                     : 24.000 FPS
Color space                    : YUV
Chroma subsampling             : 4:2:0
Bit depth                      : 8 bits
Scan type                      : Progressive
Bits/(Pixel*Frame)             : 0.339
Stream size                    : 9.48GB (94%)
Writing library                : x264 core 148 r2708 86b7198
Encoding settings              : cabac=1 / ref=5 / deblock=1:0:0 / analyse=0x3:0x113 / me=umh / subme=8 / psy=1 / psy_rd=1.00:0.00 / mixed_ref=1 / me_range=16 / chroma_me=1 / trellis=1 / 8x8dct=1 / cqm=0 / deadzone=21,11 / fast_pskip=1 / chroma_qp_offset=-2 / threads=6 / lookahead_threads=1 / sliced_threads=0 / nr=0 / decimate=1 / interlaced=0 / bluray_compat=0 / constrained_intra=0 / bframes=3 / b_pyramid=2 / b_adapt=2 / b_bias=0 / direct=3 / weightb=1 / open_gop=0 / weightp=2 / keyint=240 / keyint_min=24 / scenecut=40 / intra_refresh=0 / rc_lookahead=50 / rc=2pass / mbtree=1 / bitrate=12500 / ratetol=1.0 / qcomp=0.60 / qpmin=0 / qpmax=69 / qpstep=4 / cplxblur=20.0 / qblur=0.5 / vbv_maxrate=62500 / vbv_bufsize=78125 / nal_hrd=none / filler=0 / ip_ratio=1.40 / aq=1:1.00
Default                        : Yes
Forced                         : No
Color range                    : Limited
Color primaries                : BT.709
Transfer characteristics       : BT.709
Matrix coefficients            : BT.709
Audio
ID                             : 1
Format                         : DTS
Format/Info                    : Digital Theater Systems
Mode                           : 16
Format settings, Endianness    : Big
Codec ID                       : A_DTS
Duration                       : 1 h 48 min
Bit rate mode                  : Constant
Bit rate                       : 768 kb/s
Channel(s)                     : 6 channels
Channel positions              : Front: L C R, Side: L R, LFE
Sampling rate                  : 48.0 kHz
Frame rate                     : 93.750 FPS (512 spf)
Bit depth                      : 16 bits
Compression mode               : Lossy
Stream size                    : 597 MiB (6%)
Language                       : English
Default                        : No
Forced                         : No
Text #1
ID                             : 2
Format                         : PGS
Muxing mode                    : zlib
Codec ID                       : S_HDMV/PGS
Codec ID/Info                  : Picture based subtitle format used on BDs/HD-DVDs
Duration                       : 1 h 41 min
Bit rate                       : 12.9 kb/s
Count of elements              : 2738
Stream size                    : 9.41 MiB (0%)
Language                       : Spanish
Default                        : No
Forced                         : No
Text #2
ID                             : 3
Format                         : PGS
Muxing mode                    : zlib
Codec ID                       : S_HDMV/PGS
Codec ID/Info                  : Picture based subtitle format used on BDs/HD-DVDs
Duration                       : 1 h 28 min
Bit rate                       : 566 b/s
Count of elements              : 104
Stream size                    : 369 KiB (0%)
Language                       : Spanish
Default                        : No
Forced                         : No
Menu
00:00:00.000                   : :Chapter 1
00:08:02.292                   : :Chapter 2
00:17:45.292                   : :Chapter 3
00:24:37.792                   : :Chapter 4
00:36:20.208                   : :Chapter 5
00:46:17.625                   : :Chapter 6
00:55:19.708                   : :Chapter 7
01:07:52.333                   : :Chapter 8
01:15:51.375                   : :Chapter 9
01:24:56.208                   : :Chapter 10
01:31:49.167                   : :Chapter 11
01:38:12.875                   : :Chapter 12
091326ed5t45s0tynoia5p.jpg
091327r0epyxgygsh0hgsu.jpg
091329l3ys3s5ue1z39osp.jpg
091329yl4mm3980g5zmme5.jpg
                                                                                                                                                                                             






回复

使用道具 举报

懒得打字嘛,点击右侧快捷回复 【右侧内容,后台自定义】
您需要登录后才可以回帖 登录 | 立即加入

本版积分规则

Archiver| |网站地图

Copyright © 2024 Comsenz Inc. Powered by 蓝光电影网

本站内容由用户自主分享和转载自互联网,转载目的在于传递更多信息,并不代表本网赞同其观点和对其真实性负责。

如有侵权、违反国家法律政策行为,请联系我们,我们会第一时间及时清除和处理!

举报反馈邮箱:4k1080.com@gmail.com

快速回复 返回顶部 返回列表