找回密码

查看: 6073|回复: 4

[科幻] 异星觉醒/外星生命 Life.2017.1080p.BluRay.x264.TrueHD.7.1.Atmos-SWTYBLZ 11.24GB

[复制链接]
蓝光币
1982
发表于 2017-12-19 18:57:37 | 显示全部楼层 |阅读模式
024444q7uf3y338kddoy7h.jpg
◎译  名 异星醒觉 / 外星生命 / 异星聪明 / 生命
◎片  名 异星醒觉 Life
◎年  代 2017
◎国  家 美国
◎类  别 科幻 / 惊悚 / 可骇
◎语  言 英语 / 日语 / 越南语
◎上映日期 2017-05-19(中国大陆) / 2017-03-18(西南偏南电影节) / 2017-03-24(美国)
◎IMDb评分  6.6/10 from 125,350 users
◎IMDb链接  http://www.imdb.com/title/tt5442430/
◎豆瓣评分 6.5/10 from 84831 users
◎豆瓣链接 https://movie.douban.com/subject/26718838/
◎片  长 104分钟
◎导  演 丹尼尔·伊斯皮诺萨
◎主  演 杰克·吉伦哈尔 Jake Gyllenhaal
      丽贝卡·弗格森 Rebecca Ferguson
      瑞恩·雷诺兹 Ryan Reynolds
      真田广之 Hiroyuki Sanada
      阿利安·巴克瑞 Ariyon Bakare
      奥尔加·戴维克娜雅 Olga Dihovichnaya
      大卫·梅尔 David Muir
      伊莉莎白·巴尔加斯 Elizabeth Vargas
      卡米尔·沃伦-泰勒 Camiel Warren-Taylor
      森尚子 Naoko Mori
      亚历山大·阮 Alexandre Nguyen
      希·伍辛 Hiu Woong-Sin

◎简  介 

  大卫(杰克·吉伦哈尔 Jake Gyllenhaal 饰)、米兰达(丽贝卡·弗格森 Rebecca Ferguson 饰)、罗里(瑞安·雷诺兹 Ryan Reynolds 饰)、秀(真田广之 饰)和休(阿利安·巴克瑞 Ariyon Bakare 饰)是在同一艘太空船上工作的宇航员们。一次偶然当中,他们在火星上发现了一个尚未成熟的生命体。休将这个生命体带回了尝试室,让大师没有想到的是,这个小小的细胞在外界的刺激之下居然起头了飞速的长大。
  随着生命体的长大,局势的成长起头落空了控制,该生命体展现出了强大的进犯力和高明的智力,前后杀死了数名船员。不但如此,大卫发现生命体似乎想随着飞船一路下降地球,而一旦它的诡计得逞,地球上的人类势势需要面临没顶之灾。



  1. Video
  2. ID                                       : 1
  3. Format                                   : AVC
  4. Format/Info                              : Advanced Video Codec
  5. Format profile                           : [email]High@L4.1[/email]
  6. Format settings, CABAC                   : Yes
  7. Format settings, ReFrames                : 5 frames
  8. Codec ID                                 : V_MPEG4/ISO/AVC
  9. Duration                                 : 1 h 43 min
  10. Bit rate                                 : 9 020 kb/s
  11. Width                                    : 1 920 pixels
  12. Height                                   : 808 pixels
  13. Display aspect ratio                     : 2.40:1
  14. Frame rate mode                          : Constant
  15. Frame rate                               : 23.976 (24000/1001) FPS
  16. Color space                              : YUV
  17. Chroma subsampling                       : 4:2:0
  18. Bit depth                                : 8 bits
  19. Scan type                                : Progressive
  20. Bits/(Pixel*Frame)                       : 0.243
  21. Stream size                              : 6.55GB (58%)
  22. Title                                    : Life.2017.1080p.BluRay.x264.TrueHD.7.1.Atmos-SWTYBLZ
  23. Writing library                          : x264 core 150 r2833 df79067
  24. Encoding settings                        : cabac=1 / ref=5 / deblock=1:0:0 / analyse=0x3:0x113 / me=umh / subme=8 / psy=1 / psy_rd=1.00:0.00 / mixed_ref=1 / me_range=16 / chroma_me=1 / trellis=1 / 8x8dct=1 / cqm=0 / deadzone=21,11 / fast_pskip=1 / chroma_qp_offset=-2 / threads=24 / lookahead_threads=4 / sliced_threads=0 / nr=0 / decimate=1 / interlaced=0 / bluray_compat=0 / constrained_intra=0 / bframes=3 / b_pyramid=2 / b_adapt=1 / b_bias=0 / direct=3 / weightb=1 / open_gop=0 / weightp=2 / keyint=240 / keyint_min=24 / scenecut=40 / intra_refresh=0 / rc_lookahead=50 / rc=2pass / mbtree=1 / bitrate=9020 / ratetol=1.0 / qcomp=0.60 / qpmin=0 / qpmax=69 / qpstep=4 / cplxblur=20.0 / qblur=0.5 / ip_ratio=1.40 / aq=1:1.00
  25. Language                                 : English
  26. Default                                  : Yes
  27. Forced                                   : No

  28. Audio #1
  29. ID                                       : 2
  30. Format                                   : TrueHD
  31. Format profile                           : TrueHD+Atmos / TrueHD
  32. Codec ID                                 : A_TRUEHD
  33. Duration                                 : 1 h 43 min
  34. Bit rate mode                            : Variable
  35. Bit rate                                 : 5 264 kb/s
  36. Maximum bit rate                         : 8 139 kb/s
  37. Channel(s)                               : Object Based / 8 channels
  38. Channel positions                        : Object Based / Front: L C R, Side: L R, Back: L R, LFE
  39. Sampling rate                            :  / 48.0 kHz
  40. Frame rate                               : 1 200.000 FPS (40 spf)
  41. Compression mode                         : Lossless
  42. Delay relative to video                  : 8 ms
  43. Stream size                              : 3.82GB (34%)
  44. Title                                    : Life.2017.1080p.BluRay.x264.TrueHD.7.1.Atmos-SWTYBLZ
  45. Language                                 : English
  46. Default                                  : Yes
  47. Forced                                   : No

  48. Audio #2
  49. ID                                       : 3
  50. Format                                   : AC-3
  51. Format/Info                              : Audio Coding 3
  52. Format settings, Endianness              : Big
  53. Codec ID                                 : A_AC3
  54. Duration                                 : 1 h 43 min
  55. Bit rate mode                            : Constant
  56. Bit rate                                 : 640 kb/s
  57. Channel(s)                               : 6 channels
  58. Channel positions                        : Front: L C R, Side: L R, LFE
  59. Sampling rate                            : 48.0 kHz
  60. Frame rate                               : 31.250 FPS (1536 spf)
  61. Bit depth                                : 16 bits
  62. Compression mode                         : Lossy
  63. Delay relative to video                  : 8 ms
  64. Stream size                              : 476 MiB (4%)
  65. Title                                    : Life.2017.1080p.BluRay.x264.TrueHD.7.1.Atmos-SWTYBLZ
  66. Language                                 : English
  67. Service kind                             : Complete Main
  68. Default                                  : No
  69. Forced                                   : No

  70. Text #1
  71. ID                                       : 4
  72. Format                                   : UTF-8
  73. Codec ID                                 : S_TEXT/UTF8
  74. Codec ID/Info                            : UTF-8 Plain Text
  75. Duration                                 : 1 h 32 min
  76. Bit rate                                 : 51 b/s
  77. Count of elements                        : 1132
  78. Stream size                              : 34.8 KiB (0%)
  79. Title                                    : English-SRT
  80. Language                                 : English
  81. Default                                  : Yes
  82. Forced                                   : No

  83. Text #2
  84. ID                                       : 5
  85. Format                                   : UTF-8
  86. Codec ID                                 : S_TEXT/UTF8
  87. Codec ID/Info                            : UTF-8 Plain Text
  88. Duration                                 : 1 h 35 min
  89. Bit rate                                 : 60 b/s
  90. Count of elements                        : 1437
  91. Stream size                              : 42.3 KiB (0%)
  92. Title                                    : English-SDH-SRT
  93. Language                                 : English
  94. Default                                  : No
  95. Forced                                   : No

  96. Text #3
  97. ID                                       : 6
  98. Format                                   : PGS
  99. Muxing mode                              : zlib
  100. Codec ID                                 : S_HDMV/PGS
  101. Codec ID/Info                            : Picture based subtitle format used on BDs/HD-DVDs
  102. Duration                                 : 49 min 18 s
  103. Bit rate                                 : 612 b/s
  104. Count of elements                        : 30
  105. Stream size                              : 221 KiB (0%)
  106. Title                                    : American-English-FORCED-PGS
  107. Language                                 : English
  108. Default                                  : No
  109. Forced                                   : No

  110. Text #4
  111. ID                                       : 7
  112. Format                                   : PGS
  113. Muxing mode                              : zlib
  114. Codec ID                                 : S_HDMV/PGS
  115. Codec ID/Info                            : Picture based subtitle format used on BDs/HD-DVDs
  116. Duration                                 : 1 h 31 min
  117. Bit rate                                 : 36.4 kb/s
  118. Count of elements                        : 2210
  119. Stream size                              : 23.7 MiB (0%)
  120. Title                                    : American-English-PGS
  121. Language                                 : English
  122. Default                                  : No
  123. Forced                                   : No

  124. Text #5
  125. ID                                       : 8
  126. Format                                   : PGS
  127. Muxing mode                              : zlib
  128. Codec ID                                 : S_HDMV/PGS
  129. Codec ID/Info                            : Picture based subtitle format used on BDs/HD-DVDs
  130. Duration                                 : 1 h 35 min
  131. Bit rate                                 : 46.2 kb/s
  132. Count of elements                        : 2875
  133. Stream size                              : 31.5 MiB (0%)
  134. Title                                    : American-English-SDH-PGS
  135. Language                                 : English
  136. Default                                  : No
  137. Forced                                   : No

  138. Text #6
  139. ID                                       : 9
  140. Format                                   : PGS
  141. Muxing mode                              : zlib
  142. Codec ID                                 : S_HDMV/PGS
  143. Codec ID/Info                            : Picture based subtitle format used on BDs/HD-DVDs
  144. Duration                                 : 1 h 35 min
  145. Bit rate                                 : 46.3 kb/s
  146. Count of elements                        : 2876
  147. Stream size                              : 31.5 MiB (0%)
  148. Title                                    : British.English-SDH-PGS
  149. Language                                 : English
  150. Default                                  : No
  151. Forced                                   : No

  152. Text #7
  153. ID                                       : 10
  154. Format                                   : PGS
  155. Muxing mode                              : zlib
  156. Codec ID                                 : S_HDMV/PGS
  157. Codec ID/Info                            : Picture based subtitle format used on BDs/HD-DVDs
  158. Duration                                 : 1 h 41 min
  159. Bit rate                                 : 14.7 kb/s
  160. Count of elements                        : 1944
  161. Stream size                              : 10.6 MiB (0%)
  162. Title                                    : Arabic-PGS
  163. Language                                 : Arabic
  164. Default                                  : No
  165. Forced                                   : No

  166. Text #8
  167. ID                                       : 11
  168. Format                                   : PGS
  169. Muxing mode                              : zlib
  170. Codec ID                                 : S_HDMV/PGS
  171. Codec ID/Info                            : Picture based subtitle format used on BDs/HD-DVDs
  172. Duration                                 : 1 h 41 min
  173. Bit rate                                 : 23.8 kb/s
  174. Count of elements                        : 1971
  175. Stream size                              : 17.2 MiB (0%)
  176. Title                                    : Chinese-PGS
  177. Language                                 : Chinese
  178. Default                                  : No
  179. Forced                                   : No

  180. Text #9
  181. ID                                       : 12
  182. Format                                   : PGS
  183. Muxing mode                              : zlib
  184. Codec ID                                 : S_HDMV/PGS
  185. Codec ID/Info                            : Picture based subtitle format used on BDs/HD-DVDs
  186. Duration                                 : 1 h 41 min
  187. Bit rate                                 : 22.6 kb/s
  188. Count of elements                        : 1947
  189. Stream size                              : 16.3 MiB (0%)
  190. Title                                    : Chinese-PGS
  191. Language                                 : Chinese
  192. Default                                  : No
  193. Forced                                   : No

  194. Text #10
  195. ID                                       : 13
  196. Format                                   : PGS
  197. Muxing mode                              : zlib
  198. Codec ID                                 : S_HDMV/PGS
  199. Codec ID/Info                            : Picture based subtitle format used on BDs/HD-DVDs
  200. Duration                                 : 1 h 41 min
  201. Bit rate                                 : 26.8 kb/s
  202. Count of elements                        : 1940
  203. Stream size                              : 19.4 MiB (0%)
  204. Title                                    : Croatian-PGS
  205. Language                                 : Croatian
  206. Default                                  : No
  207. Forced                                   : No

  208. Text #11
  209. ID                                       : 14
  210. Format                                   : PGS
  211. Muxing mode                              : zlib
  212. Codec ID                                 : S_HDMV/PGS
  213. Codec ID/Info                            : Picture based subtitle format used on BDs/HD-DVDs
  214. Duration                                 : 1 h 41 min
  215. Bit rate                                 : 30.2 kb/s
  216. Count of elements                        : 2012
  217. Stream size                              : 21.8 MiB (0%)
  218. Title                                    : Czech-PGS
  219. Language                                 : Czech
  220. Default                                  : No
  221. Forced                                   : No

  222. Text #12
  223. ID                                       : 15
  224. Format                                   : PGS
  225. Muxing mode                              : zlib
  226. Codec ID                                 : S_HDMV/PGS
  227. Codec ID/Info                            : Picture based subtitle format used on BDs/HD-DVDs
  228. Duration                                 : 1 h 41 min
  229. Bit rate                                 : 28.9 kb/s
  230. Count of elements                        : 1492
  231. Stream size                              : 20.9 MiB (0%)
  232. Title                                    : Danish-PGS
  233. Language                                 : Danish
  234. Default                                  : No
  235. Forced                                   : No

  236. Text #13
  237. ID                                       : 16
  238. Format                                   : PGS
  239. Muxing mode                              : zlib
  240. Codec ID                                 : S_HDMV/PGS
  241. Codec ID/Info                            : Picture based subtitle format used on BDs/HD-DVDs
  242. Duration                                 : 1 h 41 min
  243. Bit rate                                 : 27.4 kb/s
  244. Count of elements                        : 1648
  245. Stream size                              : 19.8 MiB (0%)
  246. Title                                    : Dutch-PGS
  247. Language                                 : Dutch
  248. Default                                  : No
  249. Forced                                   : No

  250. Text #14
  251. ID                                       : 17
  252. Format                                   : PGS
  253. Muxing mode                              : zlib
  254. Codec ID                                 : S_HDMV/PGS
  255. Codec ID/Info                            : Picture based subtitle format used on BDs/HD-DVDs
  256. Duration                                 : 1 h 41 min
  257. Bit rate                                 : 28.0 kb/s
  258. Count of elements                        : 2124
  259. Stream size                              : 20.3 MiB (0%)
  260. Title                                    : Estonian-PGS
  261. Language                                 : Estonian
  262. Default                                  : No
  263. Forced                                   : No

  264. Text #15
  265. ID                                       : 18
  266. Format                                   : PGS
  267. Muxing mode                              : zlib
  268. Codec ID                                 : S_HDMV/PGS
  269. Codec ID/Info                            : Picture based subtitle format used on BDs/HD-DVDs
  270. Duration                                 : 1 h 41 min
  271. Bit rate                                 : 27.6 kb/s
  272. Count of elements                        : 2028
  273. Stream size                              : 19.9 MiB (0%)
  274. Title                                    : Finnish-PGS
  275. Language                                 : Finnish
  276. Default                                  : No
  277. Forced                                   : No

  278. Text #16
  279. ID                                       : 19
  280. Format                                   : PGS
  281. Muxing mode                              : zlib
  282. Codec ID                                 : S_HDMV/PGS
  283. Codec ID/Info                            : Picture based subtitle format used on BDs/HD-DVDs
  284. Duration                                 : 1 h 41 min
  285. Bit rate                                 : 31.0 kb/s
  286. Count of elements                        : 2250
  287. Stream size                              : 22.4 MiB (0%)
  288. Title                                    : French-PGS
  289. Language                                 : French
  290. Default                                  : No
  291. Forced                                   : No

  292. Text #17
  293. ID                                       : 20
  294. Format                                   : PGS
  295. Muxing mode                              : zlib
  296. Codec ID                                 : S_HDMV/PGS
  297. Codec ID/Info                            : Picture based subtitle format used on BDs/HD-DVDs
  298. Duration                                 : 1 h 41 min
  299. Bit rate                                 : 35.6 kb/s
  300. Count of elements                        : 2240
  301. Stream size                              : 25.7 MiB (0%)
  302. Title                                    : German-PGS
  303. Language                                 : German
  304. Default                                  : No
  305. Forced                                   : No

  306. Text #18
  307. ID                                       : 21
  308. Format                                   : PGS
  309. Muxing mode                              : zlib
  310. Codec ID                                 : S_HDMV/PGS
  311. Codec ID/Info                            : Picture based subtitle format used on BDs/HD-DVDs
  312. Duration                                 : 1 h 41 min
  313. Bit rate                                 : 35.4 kb/s
  314. Count of elements                        : 2252
  315. Stream size                              : 25.6 MiB (0%)
  316. Title                                    : Greek-PGS
  317. Language                                 : Greek
  318. Default                                  : No
  319. Forced                                   : No

  320. Text #19
  321. ID                                       : 22
  322. Format                                   : PGS
  323. Muxing mode                              : zlib
  324. Codec ID                                 : S_HDMV/PGS
  325. Codec ID/Info                            : Picture based subtitle format used on BDs/HD-DVDs
  326. Duration                                 : 1 h 41 min
  327. Bit rate                                 : 33.1 kb/s
  328. Count of elements                        : 2244
  329. Stream size                              : 23.9 MiB (0%)
  330. Title                                    : Hungarian-PGS
  331. Language                                 : Hungarian
  332. Default                                  : No
  333. Forced                                   : No

  334. Text #20
  335. ID                                       : 23
  336. Format                                   : PGS
  337. Muxing mode                              : zlib
  338. Codec ID                                 : S_HDMV/PGS
  339. Codec ID/Info                            : Picture based subtitle format used on BDs/HD-DVDs
  340. Duration                                 : 1 h 41 min
  341. Bit rate                                 : 30.4 kb/s
  342. Count of elements                        : 1917
  343. Stream size                              : 22.0 MiB (0%)
  344. Title                                    : Italian-PGS
  345. Language                                 : Italian
  346. Default                                  : No
  347. Forced                                   : No

  348. Text #21
  349. ID                                       : 24
  350. Format                                   : PGS
  351. Muxing mode                              : zlib
  352. Codec ID                                 : S_HDMV/PGS
  353. Codec ID/Info                            : Picture based subtitle format used on BDs/HD-DVDs
  354. Duration                                 : 1 h 43 min
  355. Bit rate                                 : 18.0 kb/s
  356. Count of elements                        : 1947
  357. Stream size                              : 13.4 MiB (0%)
  358. Title                                    : Korean-PGS
  359. Language                                 : Korean
  360. Default                                  : No
  361. Forced                                   : No

  362. Text #22
  363. ID                                       : 25
  364. Format                                   : PGS
  365. Muxing mode                              : zlib
  366. Codec ID                                 : S_HDMV/PGS
  367. Codec ID/Info                            : Picture based subtitle format used on BDs/HD-DVDs
  368. Duration                                 : 1 h 41 min
  369. Bit rate                                 : 27.3 kb/s
  370. Count of elements                        : 2050
  371. Stream size                              : 19.8 MiB (0%)
  372. Title                                    : Latvian-PGS
  373. Language                                 : Latvian
  374. Default                                  : No
  375. Forced                                   : No

  376. Text #23
  377. ID                                       : 26
  378. Format                                   : PGS
  379. Muxing mode                              : zlib
  380. Codec ID                                 : S_HDMV/PGS
  381. Codec ID/Info                            : Picture based subtitle format used on BDs/HD-DVDs
  382. Duration                                 : 1 h 33 min
  383. Bit rate                                 : 33.5 kb/s
  384. Count of elements                        : 1938
  385. Stream size                              : 22.4 MiB (0%)
  386. Title                                    : Lithuanian-PGS
  387. Language                                 : Lithuanian
  388. Default                                  : No
  389. Forced                                   : No

  390. Text #24
  391. ID                                       : 27
  392. Format                                   : PGS
  393. Muxing mode                              : zlib
  394. Codec ID                                 : S_HDMV/PGS
  395. Codec ID/Info                            : Picture based subtitle format used on BDs/HD-DVDs
  396. Duration                                 : 1 h 31 min
  397. Bit rate                                 : 32.3 kb/s
  398. Count of elements                        : 1943
  399. Stream size                              : 21.1 MiB (0%)
  400. Title                                    : Norwegian-PGS
  401. Language                                 : Norwegian
  402. Default                                  : No
  403. Forced                                   : No

  404. Text #25
  405. ID                                       : 28
  406. Format                                   : PGS
  407. Muxing mode                              : zlib
  408. Codec ID                                 : S_HDMV/PGS
  409. Codec ID/Info                            : Picture based subtitle format used on BDs/HD-DVDs
  410. Duration                                 : 1 h 41 min
  411. Bit rate                                 : 31.6 kb/s
  412. Count of elements                        : 1941
  413. Stream size                              : 22.8 MiB (0%)
  414. Title                                    : Portuguese-PGS
  415. Language                                 : Portuguese
  416. Default                                  : No
  417. Forced                                   : No

  418. Text #26
  419. ID                                       : 29
  420. Format                                   : PGS
  421. Muxing mode                              : zlib
  422. Codec ID                                 : S_HDMV/PGS
  423. Codec ID/Info                            : Picture based subtitle format used on BDs/HD-DVDs
  424. Duration                                 : 1 h 41 min
  425. Bit rate                                 : 30.9 kb/s
  426. Count of elements                        : 1887
  427. Stream size                              : 22.4 MiB (0%)
  428. Title                                    : Portuguese-PGS
  429. Language                                 : Portuguese
  430. Default                                  : No
  431. Forced                                   : No

  432. Text #27
  433. ID                                       : 30
  434. Format                                   : PGS
  435. Muxing mode                              : zlib
  436. Codec ID                                 : S_HDMV/PGS
  437. Codec ID/Info                            : Picture based subtitle format used on BDs/HD-DVDs
  438. Duration                                 : 1 h 41 min
  439. Bit rate                                 : 29.0 kb/s
  440. Count of elements                        : 1900
  441. Stream size                              : 21.0 MiB (0%)
  442. Title                                    : Romanian-PGS
  443. Language                                 : Romanian
  444. Default                                  : No
  445. Forced                                   : No

  446. Text #28
  447. ID                                       : 31
  448. Format                                   : PGS
  449. Muxing mode                              : zlib
  450. Codec ID                                 : S_HDMV/PGS
  451. Codec ID/Info                            : Picture based subtitle format used on BDs/HD-DVDs
  452. Duration                                 : 1 h 41 min
  453. Bit rate                                 : 35.4 kb/s
  454. Count of elements                        : 2256
  455. Stream size                              : 25.6 MiB (0%)
  456. Title                                    : Russian-PGS
  457. Language                                 : Russian
  458. Default                                  : No
  459. Forced                                   : No

  460. Text #29
  461. ID                                       : 32
  462. Format                                   : PGS
  463. Muxing mode                              : zlib
  464. Codec ID                                 : S_HDMV/PGS
  465. Codec ID/Info                            : Picture based subtitle format used on BDs/HD-DVDs
  466. Duration                                 : 1 h 33 min
  467. Bit rate                                 : 33.1 kb/s
  468. Count of elements                        : 1961
  469. Stream size                              : 22.1 MiB (0%)
  470. Title                                    : Slovak-PGS
  471. Language                                 : Slovak
  472. Default                                  : No
  473. Forced                                   : No

  474. Text #30
  475. ID                                       : 33
  476. Format                                   : PGS
  477. Muxing mode                              : zlib
  478. Codec ID                                 : S_HDMV/PGS
  479. Codec ID/Info                            : Picture based subtitle format used on BDs/HD-DVDs
  480. Duration                                 : 1 h 41 min
  481. Bit rate                                 : 30.3 kb/s
  482. Count of elements                        : 1951
  483. Stream size                              : 21.9 MiB (0%)
  484. Title                                    : Spanish-PGS
  485. Language                                 : Spanish
  486. Default                                  : No
  487. Forced                                   : No

  488. Text #31
  489. ID                                       : 34
  490. Format                                   : PGS
  491. Muxing mode                              : zlib
  492. Codec ID                                 : S_HDMV/PGS
  493. Codec ID/Info                            : Picture based subtitle format used on BDs/HD-DVDs
  494. Duration                                 : 1 h 41 min
  495. Bit rate                                 : 30.3 kb/s
  496. Count of elements                        : 1943
  497. Stream size                              : 21.9 MiB (0%)
  498. Title                                    : Spanish-PGS
  499. Language                                 : Spanish
  500. Default                                  : No
  501. Forced                                   : No

  502. Text #32
  503. ID                                       : 35
  504. Format                                   : PGS
  505. Muxing mode                              : zlib
  506. Codec ID                                 : S_HDMV/PGS
  507. Codec ID/Info                            : Picture based subtitle format used on BDs/HD-DVDs
  508. Duration                                 : 1 h 41 min
  509. Bit rate                                 : 27.1 kb/s
  510. Count of elements                        : 1484
  511. Stream size                              : 19.6 MiB (0%)
  512. Title                                    : Swedish-PGS
  513. Language                                 : Swedish
  514. Default                                  : No
  515. Forced                                   : No

  516. Text #33
  517. ID                                       : 36
  518. Format                                   : PGS
  519. Muxing mode                              : zlib
  520. Codec ID                                 : S_HDMV/PGS
  521. Codec ID/Info                            : Picture based subtitle format used on BDs/HD-DVDs
  522. Duration                                 : 1 h 41 min
  523. Bit rate                                 : 23.6 kb/s
  524. Count of elements                        : 1963
  525. Stream size                              : 17.1 MiB (0%)
  526. Title                                    : Thai-PGS
  527. Language                                 : Thai
  528. Default                                  : No
  529. Forced                                   : No

  530. Text #34
  531. ID                                       : 37
  532. Format                                   : PGS
  533. Muxing mode                              : zlib
  534. Codec ID                                 : S_HDMV/PGS
  535. Codec ID/Info                            : Picture based subtitle format used on BDs/HD-DVDs
  536. Duration                                 : 1 h 41 min
  537. Bit rate                                 : 30.5 kb/s
  538. Count of elements                        : 1953
  539. Stream size                              : 22.1 MiB (0%)
  540. Title                                    : Turkish-PGS
  541. Language                                 : Turkish
  542. Default                                  : No
  543. Forced                                   : No

  544. Menu
  545. 00:00:00.000                             : en:0:00:00.000
  546. 00:09:32.863                             : en:0:09:32.863
  547. 00:13:13.083                             : en:0:13:13.083
  548. 00:15:36.894                             : en:0:15:36.894
  549. 00:19:35.340                             : en:0:19:35.340
  550. 00:24:57.454                             : en:0:24:57.454
  551. 00:34:36.991                             : en:0:34:36.991
  552. 00:40:45.109                             : en:0:40:45.109
  553. 00:43:59.303                             : en:0:43:59.303
  554. 00:52:21.805                             : en:0:52:21.805
  555. 00:58:33.927                             : en:0:58:33.927
  556. 01:06:37.785                             : en:1:06:37.785
  557. 01:11:43.257                             : en:1:11:43.257
  558. 01:17:50.874                             : en:1:17:50.874
  559. 01:22:39.621                             : en:1:22:39.621
  560. 01:28:34.309                             : en:1:28:34.309



复制代码
复制代码
024444eu3emr1m3jncse5j.jpg 024444mwwowuslvjzm8wmp.jpg 024445rjh7h8hn1c8phgn6.jpg 024445yvg8spv8pgluooqh.jpg 024445mjjbabj2ejhxfcex.jpg 024446m0fuu88z8b8upa8u.jpg






回复

使用道具 举报

蓝光币
68
发表于 2019-6-20 10:26:32 | 显示全部楼层

这东西我收了!谢谢楼主!蓝光电影网真好!
回复

使用道具 举报

蓝光币
1240
发表于 2020-2-24 19:27:11 来自手机 | 显示全部楼层
感谢分享!!
回复

使用道具 举报

蓝光币
33
发表于 2021-10-26 15:43:14 | 显示全部楼层
谢谢分享,哈哈哈
回复

使用道具 举报

蓝光币
1
发表于 2023-9-23 15:05:05 | 显示全部楼层
谢谢分享,哈哈哈
回复

使用道具 举报

懒得打字嘛,点击右侧快捷回复 【右侧内容,后台自定义】
您需要登录后才可以回帖 登录 | 立即加入

本版积分规则

Archiver| |网站地图

Copyright © 2024 Comsenz Inc. Powered by 蓝光电影网

本站内容由用户自主分享和转载自互联网,转载目的在于传递更多信息,并不代表本网赞同其观点和对其真实性负责。

如有侵权、违反国家法律政策行为,请联系我们,我们会第一时间及时清除和处理!

举报反馈邮箱:4k1080.com@gmail.com

快速回复 返回顶部 返回列表