找回密码

查看: 4846|回复: 1

[科幻] 异星觉醒 Life.2017.1080p.BluRay.x264.TrueHD.7.1.Atmos-SWTYBLZ 11GB

[复制链接]
蓝光币
1984
发表于 2017-12-19 19:05:38 | 显示全部楼层 |阅读模式
182018idquhmthaom6amoo.jpg

◎译  名 异星醒觉/外星生命/异星聪明/生命
◎片  名 Life
◎年  代 2017
◎产  地 美国
◎类  别 科幻/惊悚/可骇
◎语  言 英语/日语/越南语
◎上映日期 2017-03-18(西南偏南电影节)/2017-03-24(美国)/2017-05-19(中国大陆)
◎IMDb评分  6.6/10 from 125,498 users
◎IMDb链接  http://www.imdb.com/title/tt5442430/
◎豆瓣评分 6.5/10 from 84,861 users
◎豆瓣链接 https://movie.douban.com/subject/26718838/
◎极高清论坛整理 http://www.GeeHD.me/
◎片  长 104分钟
◎导  演 丹尼尔·伊斯皮诺萨 Daniel Espinosa
◎主  演 杰克·吉伦哈尔 Jake Gyllenhaal
      丽贝卡·弗格森 Rebecca Ferguson
      瑞恩·雷诺兹 Ryan Reynolds
      真田广之 Hiroyuki Sanada
      阿利安·巴克瑞 Ariyon Bakare
      奥尔加·戴维克娜雅 Olga Dihovichnaya
      大卫·梅尔 David Muir
      伊莉莎白·巴尔加斯 Elizabeth Vargas
      卡米尔·沃伦-泰勒 Camiel Warren-Taylor
      森尚子 Naoko Mori
      亚历山大·阮 Alexandre Nguyen
      希·伍辛 Hiu Woong-Sin
◎简  介
  大卫(杰克·吉伦哈尔 Jake Gyllenhaal 饰)、米兰达(丽贝卡·弗格森 Rebecca Ferguson 饰)、罗里(瑞安·雷诺兹 Ryan Reynolds 饰)、秀(真田广之 饰)和休(阿利安·巴克瑞 Ariyon Bakare 饰)是在同一艘太空船上工作的宇航员们。一次偶然当中,他们在火星上发现了一个尚未成熟的生命体。休将这个生命体带回了尝试室,让大师没有想到的是,这个小小的细胞在外界的刺激之下居然起头了飞速的长大。
  随着生命体的长大,局势的成长起头落空了控制,该生命体展现出了强大的进犯力和高明的智力,前后杀死了数名船员。不但如此,大卫发现生命体似乎想随着飞船一路下降地球,而一旦它的诡计得逞,地球上的人类势势需要面临没顶之灾。
Video
ID                                       : 1
Format                                   : AVC
Format/Info                              : Advanced Video Codec
Format profile                           : High@L4.1
Format settings, CABAC                   : Yes
Format settings, ReFrames                : 5 frames
Codec ID                                 : V_MPEG4/ISO/AVC
Duration                                 : 1 h 43 min
Bit rate                                 : 9 020 kb/s
Width                                    : 1 920 pixels
Height                                   : 808 pixels
Display aspect ratio                     : 2.40:1
Frame rate mode                          : Constant
Frame rate                               : 23.976 (24000/1001) FPS
Color space                              : YUV
Chroma subsampling                       : 4:2:0
Bit depth                                : 8 bits
Scan type                                : Progressive
Bits/(Pixel*Frame)                       : 0.243
Stream size                              : 6.55GB (58%)
Title                                    : Life.2017.1080p.BluRay.x264.TrueHD.7.1.Atmos-SWTYBLZ
Writing library                          : x264 core 150 r2833 df79067
Encoding settings                        : cabac=1 / ref=5 / deblock=1:0:0 / analyse=0x3:0x113 / me=umh / subme=8 / psy=1 / psy_rd=1.00:0.00 / mixed_ref=1 / me_range=16 / chroma_me=1 / trellis=1 / 8x8dct=1 / cqm=0 / deadzone=21,11 / fast_pskip=1 / chroma_qp_offset=-2 / threads=24 / lookahead_threads=4 / sliced_threads=0 / nr=0 / decimate=1 / interlaced=0 / bluray_compat=0 / constrained_intra=0 / bframes=3 / b_pyramid=2 / b_adapt=1 / b_bias=0 / direct=3 / weightb=1 / open_gop=0 / weightp=2 / keyint=240 / keyint_min=24 / scenecut=40 / intra_refresh=0 / rc_lookahead=50 / rc=2pass / mbtree=1 / bitrate=9020 / ratetol=1.0 / qcomp=0.60 / qpmin=0 / qpmax=69 / qpstep=4 / cplxblur=20.0 / qblur=0.5 / ip_ratio=1.40 / aq=1:1.00
Language                                 : English
Default                                  : Yes
Forced                                   : No
Audio #1
ID                                       : 2
Format                                   : TrueHD
Format profile                           : TrueHD+Atmos / TrueHD
Codec ID                                 : A_TRUEHD
Duration                                 : 1 h 43 min
Bit rate mode                            : Variable
Bit rate                                 : 5 264 kb/s
Maximum bit rate                         : 8 139 kb/s
Channel(s)                               : Object Based / 8 channels
Channel positions                        : Object Based / Front: L C R, Side: L R, Back: L R, LFE
Sampling rate                            :  / 48.0 kHz
Frame rate                               : 1 200.000 FPS (40 spf)
Compression mode                         : Lossless
Delay relative to video                  : 8 ms
Stream size                              : 3.82GB (34%)
Title                                    : Life.2017.1080p.BluRay.x264.TrueHD.7.1.Atmos-SWTYBLZ
Language                                 : English
Default                                  : Yes
Forced                                   : No
Audio #2
ID                                       : 3
Format                                   : AC-3
Format/Info                              : Audio Coding 3
Format settings, Endianness              : Big
Codec ID                                 : A_AC3
Duration                                 : 1 h 43 min
Bit rate mode                            : Constant
Bit rate                                 : 640 kb/s
Channel(s)                               : 6 channels
Channel positions                        : Front: L C R, Side: L R, LFE
Sampling rate                            : 48.0 kHz
Frame rate                               : 31.250 FPS (1536 spf)
Bit depth                                : 16 bits
Compression mode                         : Lossy
Delay relative to video                  : 8 ms
Stream size                              : 476 MiB (4%)
Title                                    : Life.2017.1080p.BluRay.x264.TrueHD.7.1.Atmos-SWTYBLZ
Language                                 : English
Service kind                             : Complete Main
Default                                  : No
Forced                                   : No
Text #1
ID                                       : 4
Format                                   : UTF-8
Codec ID                                 : S_TEXT/UTF8
Codec ID/Info                            : UTF-8 Plain Text
Duration                                 : 1 h 32 min
Bit rate                                 : 51 b/s
Count of elements                        : 1132
Stream size                              : 34.8 KiB (0%)
Title                                    : English-SRT
Language                                 : English
Default                                  : Yes
Forced                                   : No
Text #2
ID                                       : 5
Format                                   : UTF-8
Codec ID                                 : S_TEXT/UTF8
Codec ID/Info                            : UTF-8 Plain Text
Duration                                 : 1 h 35 min
Bit rate                                 : 60 b/s
Count of elements                        : 1437
Stream size                              : 42.3 KiB (0%)
Title                                    : English-SDH-SRT
Language                                 : English
Default                                  : No
Forced                                   : No
Text #3
ID                                       : 6
Format                                   : PGS
Muxing mode                              : zlib
Codec ID                                 : S_HDMV/PGS
Codec ID/Info                            : Picture based subtitle format used on BDs/HD-DVDs
Duration                                 : 49 min 18 s
Bit rate                                 : 612 b/s
Count of elements                        : 30
Stream size                              : 221 KiB (0%)
Title                                    : American-English-FORCED-PGS
Language                                 : English
Default                                  : No
Forced                                   : No
Text #4
ID                                       : 7
Format                                   : PGS
Muxing mode                              : zlib
Codec ID                                 : S_HDMV/PGS
Codec ID/Info                            : Picture based subtitle format used on BDs/HD-DVDs
Duration                                 : 1 h 31 min
Bit rate                                 : 36.4 kb/s
Count of elements                        : 2210
Stream size                              : 23.7 MiB (0%)
Title                                    : American-English-PGS
Language                                 : English
Default                                  : No
Forced                                   : No
Text #5
ID                                       : 8
Format                                   : PGS
Muxing mode                              : zlib
Codec ID                                 : S_HDMV/PGS
Codec ID/Info                            : Picture based subtitle format used on BDs/HD-DVDs
Duration                                 : 1 h 35 min
Bit rate                                 : 46.2 kb/s
Count of elements                        : 2875
Stream size                              : 31.5 MiB (0%)
Title                                    : American-English-SDH-PGS
Language                                 : English
Default                                  : No
Forced                                   : No
Text #6
ID                                       : 9
Format                                   : PGS
Muxing mode                              : zlib
Codec ID                                 : S_HDMV/PGS
Codec ID/Info                            : Picture based subtitle format used on BDs/HD-DVDs
Duration                                 : 1 h 35 min
Bit rate                                 : 46.3 kb/s
Count of elements                        : 2876
Stream size                              : 31.5 MiB (0%)
Title                                    : British.English-SDH-PGS
Language                                 : English
Default                                  : No
Forced                                   : No
Text #7
ID                                       : 10
Format                                   : PGS
Muxing mode                              : zlib
Codec ID                                 : S_HDMV/PGS
Codec ID/Info                            : Picture based subtitle format used on BDs/HD-DVDs
Duration                                 : 1 h 41 min
Bit rate                                 : 14.7 kb/s
Count of elements                        : 1944
Stream size                              : 10.6 MiB (0%)
Title                                    : Arabic-PGS
Language                                 : Arabic
Default                                  : No
Forced                                   : No
Text #8
ID                                       : 11
Format                                   : PGS
Muxing mode                              : zlib
Codec ID                                 : S_HDMV/PGS
Codec ID/Info                            : Picture based subtitle format used on BDs/HD-DVDs
Duration                                 : 1 h 41 min
Bit rate                                 : 23.8 kb/s
Count of elements                        : 1971
Stream size                              : 17.2 MiB (0%)
Title                                    : Chinese-PGS
Language                                 : Chinese
Default                                  : No
Forced                                   : No
Text #9
ID                                       : 12
Format                                   : PGS
Muxing mode                              : zlib
Codec ID                                 : S_HDMV/PGS
Codec ID/Info                            : Picture based subtitle format used on BDs/HD-DVDs
Duration                                 : 1 h 41 min
Bit rate                                 : 22.6 kb/s
Count of elements                        : 1947
Stream size                              : 16.3 MiB (0%)
Title                                    : Chinese-PGS
Language                                 : Chinese
Default                                  : No
Forced                                   : No
Text #10
ID                                       : 13
Format                                   : PGS
Muxing mode                              : zlib
Codec ID                                 : S_HDMV/PGS
Codec ID/Info                            : Picture based subtitle format used on BDs/HD-DVDs
Duration                                 : 1 h 41 min
Bit rate                                 : 26.8 kb/s
Count of elements                        : 1940
Stream size                              : 19.4 MiB (0%)
Title                                    : Croatian-PGS
Language                                 : Croatian
Default                                  : No
Forced                                   : No
Text #11
ID                                       : 14
Format                                   : PGS
Muxing mode                              : zlib
Codec ID                                 : S_HDMV/PGS
Codec ID/Info                            : Picture based subtitle format used on BDs/HD-DVDs
Duration                                 : 1 h 41 min
Bit rate                                 : 30.2 kb/s
Count of elements                        : 2012
Stream size                              : 21.8 MiB (0%)
Title                                    : Czech-PGS
Language                                 : Czech
Default                                  : No
Forced                                   : No
Text #12
ID                                       : 15
Format                                   : PGS
Muxing mode                              : zlib
Codec ID                                 : S_HDMV/PGS
Codec ID/Info                            : Picture based subtitle format used on BDs/HD-DVDs
Duration                                 : 1 h 41 min
Bit rate                                 : 28.9 kb/s
Count of elements                        : 1492
Stream size                              : 20.9 MiB (0%)
Title                                    : Danish-PGS
Language                                 : Danish
Default                                  : No
Forced                                   : No
Text #13
ID                                       : 16
Format                                   : PGS
Muxing mode                              : zlib
Codec ID                                 : S_HDMV/PGS
Codec ID/Info                            : Picture based subtitle format used on BDs/HD-DVDs
Duration                                 : 1 h 41 min
Bit rate                                 : 27.4 kb/s
Count of elements                        : 1648
Stream size                              : 19.8 MiB (0%)
Title                                    : Dutch-PGS
Language                                 : Dutch
Default                                  : No
Forced                                   : No
Text #14
ID                                       : 17
Format                                   : PGS
Muxing mode                              : zlib
Codec ID                                 : S_HDMV/PGS
Codec ID/Info                            : Picture based subtitle format used on BDs/HD-DVDs
Duration                                 : 1 h 41 min
Bit rate                                 : 28.0 kb/s
Count of elements                        : 2124
Stream size                              : 20.3 MiB (0%)
Title                                    : Estonian-PGS
Language                                 : Estonian
Default                                  : No
Forced                                   : No
Text #15
ID                                       : 18
Format                                   : PGS
Muxing mode                              : zlib
Codec ID                                 : S_HDMV/PGS
Codec ID/Info                            : Picture based subtitle format used on BDs/HD-DVDs
Duration                                 : 1 h 41 min
Bit rate                                 : 27.6 kb/s
Count of elements                        : 2028
Stream size                              : 19.9 MiB (0%)
Title                                    : Finnish-PGS
Language                                 : Finnish
Default                                  : No
Forced                                   : No
Text #16
ID                                       : 19
Format                                   : PGS
Muxing mode                              : zlib
Codec ID                                 : S_HDMV/PGS
Codec ID/Info                            : Picture based subtitle format used on BDs/HD-DVDs
Duration                                 : 1 h 41 min
Bit rate                                 : 31.0 kb/s
Count of elements                        : 2250
Stream size                              : 22.4 MiB (0%)
Title                                    : French-PGS
Language                                 : French
Default                                  : No
Forced                                   : No
Text #17
ID                                       : 20
Format                                   : PGS
Muxing mode                              : zlib
Codec ID                                 : S_HDMV/PGS
Codec ID/Info                            : Picture based subtitle format used on BDs/HD-DVDs
Duration                                 : 1 h 41 min
Bit rate                                 : 35.6 kb/s
Count of elements                        : 2240
Stream size                              : 25.7 MiB (0%)
Title                                    : German-PGS
Language                                 : German
Default                                  : No
Forced                                   : No
Text #18
ID                                       : 21
Format                                   : PGS
Muxing mode                              : zlib
Codec ID                                 : S_HDMV/PGS
Codec ID/Info                            : Picture based subtitle format used on BDs/HD-DVDs
Duration                                 : 1 h 41 min
Bit rate                                 : 35.4 kb/s
Count of elements                        : 2252
Stream size                              : 25.6 MiB (0%)
Title                                    : Greek-PGS
Language                                 : Greek
Default                                  : No
Forced                                   : No
Text #19
ID                                       : 22
Format                                   : PGS
Muxing mode                              : zlib
Codec ID                                 : S_HDMV/PGS
Codec ID/Info                            : Picture based subtitle format used on BDs/HD-DVDs
Duration                                 : 1 h 41 min
Bit rate                                 : 33.1 kb/s
Count of elements                        : 2244
Stream size                              : 23.9 MiB (0%)
Title                                    : Hungarian-PGS
Language                                 : Hungarian
Default                                  : No
Forced                                   : No
Text #20
ID                                       : 23
Format                                   : PGS
Muxing mode                              : zlib
Codec ID                                 : S_HDMV/PGS
Codec ID/Info                            : Picture based subtitle format used on BDs/HD-DVDs
Duration                                 : 1 h 41 min
Bit rate                                 : 30.4 kb/s
Count of elements                        : 1917
Stream size                              : 22.0 MiB (0%)
Title                                    : Italian-PGS
Language                                 : Italian
Default                                  : No
Forced                                   : No
Text #21
ID                                       : 24
Format                                   : PGS
Muxing mode                              : zlib
Codec ID                                 : S_HDMV/PGS
Codec ID/Info                            : Picture based subtitle format used on BDs/HD-DVDs
Duration                                 : 1 h 43 min
Bit rate                                 : 18.0 kb/s
Count of elements                        : 1947
Stream size                              : 13.4 MiB (0%)
Title                                    : Korean-PGS
Language                                 : Korean
Default                                  : No
Forced                                   : No
Text #22
ID                                       : 25
Format                                   : PGS
Muxing mode                              : zlib
Codec ID                                 : S_HDMV/PGS
Codec ID/Info                            : Picture based subtitle format used on BDs/HD-DVDs
Duration                                 : 1 h 41 min
Bit rate                                 : 27.3 kb/s
Count of elements                        : 2050
Stream size                              : 19.8 MiB (0%)
Title                                    : Latvian-PGS
Language                                 : Latvian
Default                                  : No
Forced                                   : No
Text #23
ID                                       : 26
Format                                   : PGS
Muxing mode                              : zlib
Codec ID                                 : S_HDMV/PGS
Codec ID/Info                            : Picture based subtitle format used on BDs/HD-DVDs
Duration                                 : 1 h 33 min
Bit rate                                 : 33.5 kb/s
Count of elements                        : 1938
Stream size                              : 22.4 MiB (0%)
Title                                    : Lithuanian-PGS
Language                                 : Lithuanian
Default                                  : No
Forced                                   : No
Text #24
ID                                       : 27
Format                                   : PGS
Muxing mode                              : zlib
Codec ID                                 : S_HDMV/PGS
Codec ID/Info                            : Picture based subtitle format used on BDs/HD-DVDs
Duration                                 : 1 h 31 min
Bit rate                                 : 32.3 kb/s
Count of elements                        : 1943
Stream size                              : 21.1 MiB (0%)
Title                                    : Norwegian-PGS
Language                                 : Norwegian
Default                                  : No
Forced                                   : No
Text #25
ID                                       : 28
Format                                   : PGS
Muxing mode                              : zlib
Codec ID                                 : S_HDMV/PGS
Codec ID/Info                            : Picture based subtitle format used on BDs/HD-DVDs
Duration                                 : 1 h 41 min
Bit rate                                 : 31.6 kb/s
Count of elements                        : 1941
Stream size                              : 22.8 MiB (0%)
Title                                    : Portuguese-PGS
Language                                 : Portuguese
Default                                  : No
Forced                                   : No
Text #26
ID                                       : 29
Format                                   : PGS
Muxing mode                              : zlib
Codec ID                                 : S_HDMV/PGS
Codec ID/Info                            : Picture based subtitle format used on BDs/HD-DVDs
Duration                                 : 1 h 41 min
Bit rate                                 : 30.9 kb/s
Count of elements                        : 1887
Stream size                              : 22.4 MiB (0%)
Title                                    : Portuguese-PGS
Language                                 : Portuguese
Default                                  : No
Forced                                   : No
Text #27
ID                                       : 30
Format                                   : PGS
Muxing mode                              : zlib
Codec ID                                 : S_HDMV/PGS
Codec ID/Info                            : Picture based subtitle format used on BDs/HD-DVDs
Duration                                 : 1 h 41 min
Bit rate                                 : 29.0 kb/s
Count of elements                        : 1900
Stream size                              : 21.0 MiB (0%)
Title                                    : Romanian-PGS
Language                                 : Romanian
Default                                  : No
Forced                                   : No
Text #28
ID                                       : 31
Format                                   : PGS
Muxing mode                              : zlib
Codec ID                                 : S_HDMV/PGS
Codec ID/Info                            : Picture based subtitle format used on BDs/HD-DVDs
Duration                                 : 1 h 41 min
Bit rate                                 : 35.4 kb/s
Count of elements                        : 2256
Stream size                              : 25.6 MiB (0%)
Title                                    : Russian-PGS
Language                                 : Russian
Default                                  : No
Forced                                   : No
Text #29
ID                                       : 32
Format                                   : PGS
Muxing mode                              : zlib
Codec ID                                 : S_HDMV/PGS
Codec ID/Info                            : Picture based subtitle format used on BDs/HD-DVDs
Duration                                 : 1 h 33 min
Bit rate                                 : 33.1 kb/s
Count of elements                        : 1961
Stream size                              : 22.1 MiB (0%)
Title                                    : Slovak-PGS
Language                                 : Slovak
Default                                  : No
Forced                                   : No
Text #30
ID                                       : 33
Format                                   : PGS
Muxing mode                              : zlib
Codec ID                                 : S_HDMV/PGS
Codec ID/Info                            : Picture based subtitle format used on BDs/HD-DVDs
Duration                                 : 1 h 41 min
Bit rate                                 : 30.3 kb/s
Count of elements                        : 1951
Stream size                              : 21.9 MiB (0%)
Title                                    : Spanish-PGS
Language                                 : Spanish
Default                                  : No
Forced                                   : No
Text #31
ID                                       : 34
Format                                   : PGS
Muxing mode                              : zlib
Codec ID                                 : S_HDMV/PGS
Codec ID/Info                            : Picture based subtitle format used on BDs/HD-DVDs
Duration                                 : 1 h 41 min
Bit rate                                 : 30.3 kb/s
Count of elements                        : 1943
Stream size                              : 21.9 MiB (0%)
Title                                    : Spanish-PGS
Language                                 : Spanish
Default                                  : No
Forced                                   : No
Text #32
ID                                       : 35
Format                                   : PGS
Muxing mode                              : zlib
Codec ID                                 : S_HDMV/PGS
Codec ID/Info                            : Picture based subtitle format used on BDs/HD-DVDs
Duration                                 : 1 h 41 min
Bit rate                                 : 27.1 kb/s
Count of elements                        : 1484
Stream size                              : 19.6 MiB (0%)
Title                                    : Swedish-PGS
Language                                 : Swedish
Default                                  : No
Forced                                   : No
Text #33
ID                                       : 36
Format                                   : PGS
Muxing mode                              : zlib
Codec ID                                 : S_HDMV/PGS
Codec ID/Info                            : Picture based subtitle format used on BDs/HD-DVDs
Duration                                 : 1 h 41 min
Bit rate                                 : 23.6 kb/s
Count of elements                        : 1963
Stream size                              : 17.1 MiB (0%)
Title                                    : Thai-PGS
Language                                 : Thai
Default                                  : No
Forced                                   : No
Text #34
ID                                       : 37
Format                                   : PGS
Muxing mode                              : zlib
Codec ID                                 : S_HDMV/PGS
Codec ID/Info                            : Picture based subtitle format used on BDs/HD-DVDs
Duration                                 : 1 h 41 min
Bit rate                                 : 30.5 kb/s
Count of elements                        : 1953
Stream size                              : 22.1 MiB (0%)
Title                                    : Turkish-PGS
Language                                 : Turkish
Default                                  : No
Forced                                   : No
Menu
00:00:00.000                             : en:0:00:00.000
00:09:32.863                             : en:0:09:32.863
00:13:13.083                             : en:0:13:13.083
00:15:36.894                             : en:0:15:36.894
00:19:35.340                             : en:0:19:35.340
00:24:57.454                             : en:0:24:57.454
00:34:36.991                             : en:0:34:36.991
00:40:45.109                             : en:0:40:45.109
00:43:59.303                             : en:0:43:59.303
00:52:21.805                             : en:0:52:21.805
00:58:33.927                             : en:0:58:33.927
01:06:37.785                             : en:1:06:37.785
01:11:43.257                             : en:1:11:43.257
01:17:50.874                             : en:1:17:50.874
01:22:39.621                             : en:1:22:39.621
01:28:34.309                             : en:1:28:34.309
182019lper3akzk3gprt2u.jpg 182020ykkwjrki3ekrrrsb.jpg
182021q14q41ipz865dslz.jpg 182022zlccvy5x1d75leds.jpg
182023i23tx0hk0ktxk0a5.jpg 182024as9so9er89ssv9e5.jpg







回复

使用道具 举报

蓝光币
115
发表于 2019-12-17 14:59:20 | 显示全部楼层
楼主发贴辛苦了,谢谢楼主分享!我觉得蓝光电影网是注册对了!
回复

使用道具 举报

懒得打字嘛,点击右侧快捷回复 【右侧内容,后台自定义】
您需要登录后才可以回帖 登录 | 立即加入

本版积分规则

Archiver| |网站地图

Copyright © 2024 Comsenz Inc. Powered by 蓝光电影网

本站内容由用户自主分享和转载自互联网,转载目的在于传递更多信息,并不代表本网赞同其观点和对其真实性负责。

如有侵权、违反国家法律政策行为,请联系我们,我们会第一时间及时清除和处理!

举报反馈邮箱:4k1080.com@gmail.com

快速回复 返回顶部 返回列表