找回密码

查看: 6465|回复: 2

[爱情] 五十度黑.Fifty Shades Darker.2017.US.UNRATED.BluRay.1920x800p.x264.DTS-KOOK.[中

[复制链接]
蓝光币
1974
发表于 2017-12-19 19:26:29 | 显示全部楼层 |阅读模式
五十度黑.Fifty Shades Darker.2017.US.UNRATED.BluRay.1920x800p.x264.DTS-KOOK.[中英双字]9.3G
201703nsll6dv7zdzdfz8y.jpg
201704nri294i24mzimp99.jpg
※※※※※※※ 影片信息 ※※※※※※※
◎片   名 Fifty Shades Darker
◎译   名 五十度黑 / 格雷的五十道色戒2 / 格雷的五十道阴影:约束 / 五十度灰2 / 50 Shades Darker
◎年   代 2017
◎国   家 美国
◎类   别 剧情 / 恋爱 / 情色
◎语   言 英语
◎上映日 期 2017-02-10(美国)
◎字   幕 中英双字/简体字幕/繁体字幕/英笔墨幕
◎IMDB 评分  4.6/10 from 56833 users
◎豆瓣 评分  4.9/10 from 22229 users
◎视频尺 寸  1920x800p
◎片   长 2.11.28
◎导   演 詹姆斯·弗雷
◎编     剧  尼尔·伦纳德 / E·L·詹姆斯
◎主   演 达科塔·约翰逊 / 詹米·多南 / 埃里克·约翰逊 / 艾洛斯·慕福特 / 贝拉·希思科特

◎简  介
  年度争议高文《五十度灰》行将在2月13日北美上映,克日,导演萨姆·泰勒-约翰逊,主演詹米·多南和达科塔·约翰逊在纽约一场影片粉丝放映会上,向参加的观众公布了《五十度灰2》和《五十度灰3》已经肯定拍摄的消息。
  据MTV流露,《五十度灰2》和《五十度灰3》将按照E.L.詹姆斯所著的《五十度黑》(《Fifty Shades Darker》)和《五十度飞》(《Fifty Shades Freed》)改编,达科塔·约翰逊饰演女配角安娜斯塔西娅·斯蒂尔也将再次登上大银幕。
   安娜(达科塔·约翰逊饰演)在出书业有了一份新工作,看上去很高兴,但没法拒绝克里斯蒂安·格雷(詹米·多南饰演)侵犯性的追求。在他保证有所改变以后,两人敏捷和洽了,但很快,他的妒忌偏向压服了一切。他买下了她工作的公司,出于不著名的缘由偷到了她的银行账户信息,而且制止她出差,不外她老板卢克·葛莱姆斯也确切没安好心。克里斯蒂安·格雷与安娜旧情复燃后,格雷前女友莱拉(金·贝辛格饰)出现,都让这段虐恋再生变数
※※※※※※※ 参数信息 ※※※※※※※
General
Unique ID                      : 220290102516211433207087475605189375349 (0xA5BA549AEA290953B25B6E942F4F3575)
Format                         : Matroska
Format version                 : Version 4 / Version 2
File size                      : 9.30GB
Duration                       : 2 h 11 min
Overall bit rate               : 10.1 Mb/s
Movie name                     : Fifty.Shades.Darker.2017.UNRATED.1080p.BluRay.x264.DTS-HDC
Encoded date                   : UTC 2017-10-12 14:31:02
Writing application            : mkvmerge v9.4.2 ( So High ) 64bit
Writing library                : libebml v1.3.4 + libmatroska v1.4.5
Attachments                    : 正式海报 美国.jpg / msyhbd.ttf / msyh.ttf
Video
ID                             : 1
Format                         : AVC
Format/Info                    : Advanced Video Codec
Format profile                 : Main@L4
Format settings, CABAC         : Yes
Format settings, ReFrames      : 1 frame
Codec ID                       : V_MPEG4/ISO/AVC
Duration                       : 2 h 11 min
Bit rate                       : 8 700 kb/s
Width                          : 1 920 pixels
Height                         : 800 pixels
Display aspect ratio           : 2.40:1
Frame rate mode                : Constant
Frame rate                     : 23.976 (23976/1000) FPS
Color space                    : YUV
Chroma subsampling             : 4:2:0
Bit depth                      : 8 bits
Scan type                      : Progressive
Bits/(Pixel*Frame)             : 0.236
Stream size                    : 7.88GB (85%)
Writing library                : x264 core 125
Encoding settings              : cabac=1 / ref=1 / deblock=1:0:0 / analyse=0x1:0x131 / me=hex / subme=6 / psy=1 / psy_rd=1.00:0.00 / mixed_ref=0 / me_range=16 / chroma_me=1 / trellis=0 / 8x8dct=0 / cqm=0 / deadzone=21,11 / fast_pskip=1 / chroma_qp_offset=-2 / threads=4 / lookahead_threads=1 / sliced_threads=0 / nr=0 / decimate=1 / interlaced=0 / bluray_compat=0 / constrained_intra=0 / bframes=0 / weightp=2 / keyint=12 / keyint_min=7 / scenecut=40 / intra_refresh=0 / rc_lookahead=12 / rc=abr / mbtree=1 / bitrate=8700 / ratetol=1.0 / qcomp=0.60 / qpmin=6 / qpmax=51 / qpstep=4 / ip_ratio=1.40 / aq=1:1.00
Default                        : Yes
Forced                         : No
Audio
ID                             : 2
Format                         : DTS
Format/Info                    : Digital Theater Systems
Mode                           : 16
Format settings, Endianness    : Big
Codec ID                       : A_DTS
Duration                       : 2 h 11 min
Bit rate mode                  : Constant
Bit rate                       : 1 509 kb/s
Channel(s)                     : 6 channels
Channel positions              : Front: L C R, Side: L R, LFE
Sampling rate                  : 48.0 kHz
Frame rate                     : 93.750 FPS (512 spf)
Bit depth                      : 24 bits
Compression mode               : Lossy
Stream size                    : 1.39GB (15%)
Title                          : Fifty.Shades.Darker.2017.UNRATED.1080p.BluRay.x264.DTS-HDC
Language                       : English
Default                        : Yes
Forced                         : No
Text #1
ID                             : 3
Format                         : ASS
Codec ID                       : S_TEXT/ASS
Codec ID/Info                  : Advanced Sub Station Alpha
Duration                       : 2 h 9 min
Bit rate                       : 208 b/s
Count of elements              : 1497
Compression mode               : Lossless
Stream size                    : 198 KiB (0%)
Title                          : 中英字幕
Language                       : Chinese
Default                        : Yes
Forced                         : No
Text #2
ID                             : 4
Format                         : ASS
Codec ID                       : S_TEXT/ASS
Codec ID/Info                  : Advanced Sub Station Alpha
Duration                       : 2 h 9 min
Bit rate                       : 127 b/s
Count of elements              : 1497
Compression mode               : Lossless
Stream size                    : 120 KiB (0%)
Title                          : 简体字幕
Language                       : Chinese
Default                        : No
Forced                         : No
Text #3
ID                             : 5
Format                         : ASS
Codec ID                       : S_TEXT/ASS
Codec ID/Info                  : Advanced Sub Station Alpha
Duration                       : 2 h 9 min
Bit rate                       : 127 b/s
Count of elements              : 1497
Compression mode               : Lossless
Stream size                    : 120 KiB (0%)
Title                          : 繁体字幕
Language                       : Chinese
Default                        : No
Forced                         : No
Text #4
ID                             : 6
Format                         : ASS
Codec ID                       : S_TEXT/ASS
Codec ID/Info                  : Advanced Sub Station Alpha
Duration                       : 2 h 9 min
Bit rate                       : 114 b/s
Count of elements              : 1497
Compression mode               : Lossless
Stream size                    : 108 KiB (0%)
Title                          : 英笔墨幕
Language                       : English
Default                        : No
Forced                         : No
Menu
00:00:00.000                   : en:00:00:00.000
00:05:47.722                   : en:00:05:47.722
00:13:14.460                   : en:00:13:14.460
00:18:18.055                   : en:00:18:18.055
00:24:45.359                   : en:00:24:45.359
00:29:19.675                   : en:00:29:19.675
00:37:25.201                   : en:00:37:25.201
00:44:31.794                   : en:00:44:31.794
00:50:22.394                   : en:00:50:22.394
00:57:58.058                   : en:00:57:58.058
01:06:01.958                   : en:01:06:01.958
01:11:54.936                   : en:01:11:54.936
01:24:49.876                   : en:01:24:49.876
01:30:39.851                   : en:01:30:39.851
01:35:40.651                   : en:01:35:40.651
01:41:00.221                   : en:01:41:00.221
01:48:53.735                   : en:01:48:53.735
01:55:57.701                   : en:01:55:57.701
02:01:38.374                   : en:02:01:38.374
02:05:32.149                   : en:02:05:32.149
201705idvgshl3dpjzolbj.jpg
                                                                                                                                                                                             





回复

使用道具 举报

蓝光币
115
发表于 2019-12-17 15:09:04 | 显示全部楼层

其实我一直觉得楼主的品味不错!呵呵!蓝光电影网太棒了!
回复

使用道具 举报

蓝光币
120
发表于 2022-12-5 13:08:15 | 显示全部楼层
楼主,下不了的资源就不要在放这了吧,白费我蓝光币
回复

使用道具 举报

懒得打字嘛,点击右侧快捷回复 【右侧内容,后台自定义】
您需要登录后才可以回帖 登录 | 立即加入

本版积分规则

Archiver| |网站地图

Copyright © 2024 Comsenz Inc. Powered by 蓝光电影网

本站内容由用户自主分享和转载自互联网,转载目的在于传递更多信息,并不代表本网赞同其观点和对其真实性负责。

如有侵权、违反国家法律政策行为,请联系我们,我们会第一时间及时清除和处理!

举报反馈邮箱:4k1080.com@gmail.com

快速回复 返回顶部 返回列表