找回密码

查看: 7747|回复: 3

[剧情] 性爱娃娃.Sex Doll.2016.FR.BluRay.1920x808p.x264.DTS-KOOK.[中英字幕]7.68G

[复制链接]
蓝光币
1984
发表于 2017-12-19 19:31:47 | 显示全部楼层 |阅读模式
性爱娃娃.Sex Doll.2016.FR.BluRay.1920x808p.x264.DTS-KOOK.[中英字幕]7.68G
193832i333v3o3b0czww0o.jpg
193834aq5qsrp1quwpsluz.jpg
※※※※※※※ 影片信息 ※※※※※※※
◎片   名 Sex Doll
◎译   名 性爱娃娃 / 玩物情人 / 性感美人
◎年   代 2016
◎国   家 法国 / 英国
◎类   别 剧情 / 情色
◎语   言 法语
◎上映日 期 2016-12-07(法国)
◎字   幕 简体字幕/繁体字幕/英笔墨幕
◎IMDB 评分  4.3/10 from 864 users
◎豆瓣 评分  4.9/10 from 723 users
◎视频尺 寸  1920x808p
◎片   长 1.42.50
◎导   演 西尔薇·维尔海迪
◎编     剧  西尔薇·维尔海迪
◎主   演 阿弗西娅·埃尔奇 / 阿什·斯戴梅斯特 / 卡罗勒·罗谢 / 保罗·艾米 / 艾拉·马克斯

◎简  介
  
   在伦敦的高级应召女郎的天下,Amoureux Solitaires告诉的法国护送维吉妮,伦敦和鲁伯特的故事,一小我救了被销售的女孩-一个现代的恋爱故事。
  布景是倫敦,阿芙皙雅飾演的薇吉妮是應召女郎,她的老鴇信赖她,還要她帶剛入行的妓女。她日複日賣淫,但也渴望愛情,當她碰到專門拯救受拐騙少女的年輕男人(史戴梅斯特飾)時,礙於自己的身世,愛得辛劳。
  短評:《性》是《巴黎妓院回憶錄》(House Of Pleaures) 的法國紅星阿芙皙雅的最新情欲表演,再度挑戰妓女,為操皮肉生活的年輕女子做出最大的控訴,無情揭開人的情欲真脸孔,而這段掙紮在社會底層的危險愛情故事,也拍得驚心動魄,因為操控妓女的惡勢力,不是省油的燈。阿芙皙雅身段火辣,多場與嫖客的性愛戲,導演也處理得火辣
※※※※※※※ 参数信息 ※※※※※※※
General
Unique ID                      : 237359820925512539240589059348876440239 (0xB291D6B32CA26B229F2520E34A0732AF)
Format                         : Matroska
Format version                 : Version 4 / Version 2
File size                      : 7.68GB
Duration                       : 1 h 42 min
Overall bit rate               : 10.7 Mb/s
Encoded date                   : UTC 2017-10-14 11:17:59
Writing application            : mkvmerge v9.4.2 ( So High ) 64bit
Writing library                : libebml v1.3.4 + libmatroska v1.4.5
Attachments                    : 正式海报 法国.jpg / msyhbd.ttf / msyh.ttf
Video
ID                             : 1
Format                         : AVC
Format/Info                    : Advanced Video Codec
Format profile                 : High@L4.1
Format settings, CABAC         : Yes
Format settings, ReFrames      : 5 frames
Codec ID                       : V_MPEG4/ISO/AVC
Duration                       : 1 h 42 min
Bit rate                       : 9 144 kb/s
Width                          : 1 920 pixels
Height                         : 808 pixels
Display aspect ratio           : 2.40:1
Frame rate mode                : Constant
Frame rate                     : 23.976 FPS
Color space                    : YUV
Chroma subsampling             : 4:2:0
Bit depth                      : 8 bits
Scan type                      : Progressive
Bits/(Pixel*Frame)             : 0.246
Stream size                    : 6.56GB (85%)
Writing library                : x264 core 150 r2833 df79067
Encoding settings              : cabac=1 / ref=5 / deblock=1:0:0 / analyse=0x3:0x133 / me=umh / subme=7 / psy=1 / psy_rd=1.00:0.00 / mixed_ref=1 / me_range=16 / chroma_me=1 / trellis=1 / 8x8dct=1 / cqm=0 / deadzone=21,11 / fast_pskip=0 / chroma_qp_offset=-2 / threads=18 / lookahead_threads=3 / sliced_threads=0 / nr=0 / decimate=1 / interlaced=0 / bluray_compat=0 / constrained_intra=0 / bframes=3 / b_pyramid=2 / b_adapt=1 / b_bias=0 / direct=1 / weightb=1 / open_gop=0 / weightp=2 / keyint=250 / keyint_min=23 / scenecut=40 / intra_refresh=0 / rc_lookahead=40 / rc=2pass / mbtree=1 / bitrate=9144 / ratetol=1.0 / qcomp=0.60 / qpmin=0 / qpmax=69 / qpstep=4 / cplxblur=20.0 / qblur=0.5 / ip_ratio=1.40 / aq=1:1.00
Language                       : English
Default                        : Yes
Forced                         : No
Audio
ID                             : 2
Format                         : DTS
Format/Info                    : Digital Theater Systems
Mode                           : 16
Format settings, Endianness    : Big
Codec ID                       : A_DTS
Duration                       : 1 h 42 min
Bit rate mode                  : Constant
Bit rate                       : 1 509 kb/s
Channel(s)                     : 6 channels
Channel positions              : Front: L C R, Side: L R, LFE
Sampling rate                  : 48.0 kHz
Frame rate                     : 93.750 FPS (512 spf)
Bit depth                      : 24 bits
Compression mode               : Lossy
Stream size                    : 1.08GB (14%)
Language                       : English
Default                        : Yes
Forced                         : No
Text #1
ID                             : 3
Format                         : ASS
Codec ID                       : S_TEXT/ASS
Codec ID/Info                  : Advanced Sub Station Alpha
Duration                       : 1 h 40 min
Bit rate                       : 80 b/s
Count of elements              : 737
Compression mode               : Lossless
Stream size                    : 58.9 KiB (0%)
Title                          : 简体字幕
Language                       : Chinese
Default                        : Yes
Forced                         : No
Text #2
ID                             : 4
Format                         : ASS
Codec ID                       : S_TEXT/ASS
Codec ID/Info                  : Advanced Sub Station Alpha
Duration                       : 1 h 40 min
Bit rate                       : 80 b/s
Count of elements              : 737
Compression mode               : Lossless
Stream size                    : 58.9 KiB (0%)
Title                          : 繁体字幕
Language                       : Chinese
Default                        : No
Forced                         : No
Text #3
ID                             : 5
Format                         : UTF-8
Codec ID                       : S_TEXT/UTF8
Codec ID/Info                  : UTF-8 Plain Text
Duration                       : 1 h 34 min
Bit rate                       : 12 b/s
Count of elements              : 412
Stream size                    : 8.82 KiB (0%)
Title                          : 英笔墨幕
Language                       : English
Default                        : No
Forced                         : No
Menu
00:00:00.000                   : en:00:00:00.000
00:07:26.279                   : en:00:07:26.279
00:15:07.281                   : en:00:15:07.281
00:23:14.435                   : en:00:23:14.435
00:30:58.315                   : en:00:30:58.315
00:42:34.010                   : en:00:42:34.010
00:51:18.200                   : en:00:51:18.200
00:58:33.301                   : en:00:58:33.301
01:09:09.687                   : en:01:09:09.687
01:17:37.862                   : en:01:17:37.862
01:28:11.828                   : en:01:28:11.828
01:39:54.989                   : en:01:39:54.989
193836hoqzm5qmqj5eqmj4.jpg
                                                                                                                                                                                             





回复

使用道具 举报

蓝光币
218
发表于 2019-3-10 14:52:04 | 显示全部楼层

其实我一直觉得楼主的品味不错!呵呵!蓝光电影网太棒了!
回复

使用道具 举报

蓝光币
1108
发表于 2019-7-12 13:42:08 | 显示全部楼层

我看不错噢 谢谢楼主!蓝光电影网越来越好!
回复

使用道具 举报

蓝光币
115
发表于 2019-12-17 15:04:09 | 显示全部楼层

其实我一直觉得楼主的品味不错!呵呵!蓝光电影网太棒了!
回复

使用道具 举报

懒得打字嘛,点击右侧快捷回复 【右侧内容,后台自定义】
您需要登录后才可以回帖 登录 | 立即加入

本版积分规则

Archiver| |网站地图

Copyright © 2024 Comsenz Inc. Powered by 蓝光电影网

本站内容由用户自主分享和转载自互联网,转载目的在于传递更多信息,并不代表本网赞同其观点和对其真实性负责。

如有侵权、违反国家法律政策行为,请联系我们,我们会第一时间及时清除和处理!

举报反馈邮箱:4k1080.com@gmail.com

快速回复 返回顶部 返回列表