找回密码

查看: 2608|回复: 1

[剧情] 逃离“自由”电影院 Escape.From.The.Liberty.Cinema.1990.1080p.BluRay.x264-SPRiNTER 5.46GB

[复制链接]
蓝光币
1992
发表于 2017-12-19 19:33:35 | 显示全部楼层 |阅读模式
004855o151bger1q5ybjea.jpg
◎译  名 逃离“自在”电影院 / Escape from the Cinema Liberty / Ucieczka z kina 'Wolnosc'
◎片  名 逃离“自在”电影院 Ucieczka z kina 'Wolno??'
◎年  代 1991
◎国  家 波兰
◎类  别 剧情 / 笑剧 / 奇异
◎语  言 波兰语
◎上映日期 1991
◎IMDb评分  7.2/10 from 470 users
◎IMDb链接  http://www.imdb.com/title/tt0103150/
◎豆瓣评分 7.8/10 from 102 users
◎豆瓣链接 https://movie.douban.com/subject/1768109/
◎片  长 88分钟
◎导  演 Wojciech Marczewski
◎主  演 Janusz Gajos
      Wojciech Marczewski
      泽比纽·扎马洲斯基 Zbigniew Zamachowski

◎简  介 

  两位主演都是波兰影坛很是著名的男演员,Janusz Gajos和Wojciech Marczewski屡次与基耶斯洛夫斯基合作,出演他的《红》《白》《蓝》三部曲等片。
  "The idea of mercy need not have anything in common with sentimental pity. One who forgives his opponent breaks away from him, setting himself free. Even the gravest sin calls for forgiveness, lest it poisons the lives of both the sinner and the one who considers himself innocent. The sentence 'where there is guilt, there is punishment' may be replaced - after Dostoyevsky and Bulgakov - with another one: 'where there is guilt, there is forgiveness'. … The importance and moral beauty of Marczewski's film lies in its top-down look at the reality of the communist Poland, a look from the perspective of true freedom which is contingent on forgiveness" (Tadeusz Sobolewski, "Kino" 1990). ESCAPE... is one of the key films of the political breakthrough of 1989.



  1. Video
  2. ID                                       : 1
  3. Format                                   : AVC
  4. Format/Info                              : Advanced Video Codec
  5. Format profile                           : [email]High@L4.1[/email]
  6. Format settings, CABAC                   : Yes
  7. Format settings, ReFrames                : 4 frames
  8. Codec ID                                 : V_MPEG4/ISO/AVC
  9. Duration                                 : 1h 27mn
  10. Bit rate                                 : 8 519 Kbps
  11. Width                                    : 1 920 pixels
  12. Height                                   : 1 080 pixels
  13. Display aspect ratio                     : 16:9
  14. Frame rate mode                          : Constant
  15. Frame rate                               : 25.000 fps
  16. Color space                              : YUV
  17. Chroma subsampling                       : 4:2:0
  18. Bit depth                                : 8 bits
  19. Scan type                                : Progressive
  20. Bits/(Pixel*Frame)                       : 0.164
  21. Stream size                              : 5.23GB (96%)
  22. Writing library                          : x264 core 152 r2851 ba24899
  23. Encoding settings                        : cabac=1 / ref=4 / deblock=1:0:0 / analyse=0x3:0x133 / me=umh / subme=7 / psy=1 / psy_rd=1.00:0.00 / mixed_ref=1 / me_range=16 / chroma_me=1 / trellis=1 / 8x8dct=1 / cqm=0 / deadzone=21,11 / fast_pskip=0 / chroma_qp_offset=-2 / threads=24 / lookahead_threads=4 / sliced_threads=0 / nr=0 / decimate=1 / interlaced=0 / bluray_compat=0 / constrained_intra=0 / bframes=3 / b_pyramid=2 / b_adapt=1 / b_bias=0 / direct=1 / weightb=1 / open_gop=0 / weightp=2 / keyint=250 / keyint_min=25 / scenecut=40 / intra_refresh=0 / rc_lookahead=40 / rc=2pass / mbtree=1 / bitrate=8519 / ratetol=1.0 / qcomp=0.60 / qpmin=0 / qpmax=69 / qpstep=4 / cplxblur=20.0 / qblur=0.5 / ip_ratio=1.40 / aq=1:1.00
  24. Language                                 : Polish
  25. Default                                  : Yes
  26. Forced                                   : No

  27. Audio
  28. ID                                       : 2
  29. Format                                   : AC-3
  30. Format/Info                              : Audio Coding 3
  31. Mode extension                           : CM (complete main)
  32. Format settings, Endianness              : Big
  33. Codec ID                                 : A_AC3
  34. Duration                                 : 1h 27mn
  35. Bit rate mode                            : Constant
  36. Bit rate                                 : 384 Kbps
  37. Channel(s)                               : 2 channels
  38. Channel positions                        : Front: L R
  39. Sampling rate                            : 48.0 KHz
  40. Frame rate                               : 31.250 fps (1536 spf)
  41. Compression mode                         : Lossy
  42. Stream size                              : 241 MiB (4%)
  43. Language                                 : Polish
  44. Default                                  : Yes
  45. Forced                                   : No

  46. Text
  47. ID                                       : 3
  48. Format                                   : UTF-8
  49. Codec ID                                 : S_TEXT/UTF8
  50. Codec ID/Info                            : UTF-8 Plain Text
  51. Duration                                 : 1h 25mn
  52. Bit rate                                 : 39 bps
  53. Count of elements                        : 799
  54. Stream size                              : 24.4 KiB (0%)
  55. Language                                 : English
  56. Default                                  : Yes
  57. Forced                                   : Yes




复制代码
复制代码
004855l1le3ep98j1jdjel.jpg





回复

使用道具 举报

懒得打字嘛,点击右侧快捷回复 【右侧内容,后台自定义】
您需要登录后才可以回帖 登录 | 立即加入

本版积分规则

Archiver| |网站地图

Copyright © 2024 Comsenz Inc. Powered by 蓝光电影网

本站内容由用户自主分享和转载自互联网,转载目的在于传递更多信息,并不代表本网赞同其观点和对其真实性负责。

如有侵权、违反国家法律政策行为,请联系我们,我们会第一时间及时清除和处理!

举报反馈邮箱:4k1080.com@gmail.com

快速回复 返回顶部 返回列表