找回密码

查看: 2812|回复: 2

[剧情] 毛骨悚然/颤抖 Shivers.1981.1080p.BluRay.x264-SPRiNTER 6.56GB

[复制链接]
蓝光币
1982
发表于 2017-12-19 19:34:38 | 显示全部楼层 |阅读模式
012533embbwgrirhwamwr9.jpg
◎译  名 毛骨悚然 / 颤抖 / 战怵
◎片  名 毛骨悚然 Dreszcze
◎年  代 1981
◎国  家 波兰
◎类  别 剧情 / 历史
◎语  言 波兰语
◎上映日期 1981-11-23
◎IMDb评分  7.0/10 from 222 users
◎IMDb链接  http://www.imdb.com/title/tt0082294/
◎豆瓣评分 7.1/10 from 39 users
◎豆瓣链接 https://movie.douban.com/subject/1303103/
◎片  长 106 分钟
◎导  演 Wojciech Marczewski
◎主  演 Tomasz Hudziec

◎简  介 

  Set in the early 1950's, during the Stalin's Personality Cult. The story opens in a provincial town. Tomek's father, a former member of the Home Army is arrested so the mother is left with the task of raising two kids alone. The neighbor upstairs commits suicide when her husband is also arrested and transported to the prison camp. It's winter so the kids keep their hands warm at school by hand-beating themselves. The teachers at school are mean, narrow minded idealists, When they ask the kids who goes to church on Sundays, the whole class stands up to defeat the purpose of the propaganda lesson. Tomek is sent to the training school in the summer. There he absorbs most of the ideology pumped into his head, and when his father is released from prison he finds another boy he has left.
  布景设备在1950年月,斯大林小我崇敬期间.故事从一个省会起头,托米克的父亲私以为前故乡军成员,被拘系后留下妻子抚养两个孩子.楼上的邻人由于丈夫也被捕并转到集合营而自杀.由因而冬季,所以孩子们在黉舍为了连结手暖和而不竭自己打手.黉舍的教员是刻薄且心胸狭隘的唯物主义者,当他们问孩子谁在周日去了教堂,全班都站起来,挫败了这节政宣课的诡计.夏日托米克被送往培训黉舍.在那边他被灌输了大量认识形状.等他父亲从牢狱里被开释,他发现自己的孩子变了一小我

◎获奖情况 

  第32届柏林国际电影节 (1982)
  金熊奖 最好影片(提名) 沃依切赫·马尔切夫斯基
  银熊奖 评审团奖 沃依切赫·马尔切夫斯基
  费比西奖(国际影评人同盟奖) 比赛单元最好影片 沃依切赫·马尔切夫斯基



  1. Video
  2. ID                                       : 1
  3. Format                                   : AVC
  4. Format/Info                              : Advanced Video Codec
  5. Format profile                           : [email]High@L4.1[/email]
  6. Format settings, CABAC                   : Yes
  7. Format settings, ReFrames                : 4 frames
  8. Codec ID                                 : V_MPEG4/ISO/AVC
  9. Duration                                 : 1h 42mn
  10. Bit rate                                 : 8 777 Kbps
  11. Width                                    : 1 552 pixels
  12. Height                                   : 1 080 pixels
  13. Display aspect ratio                     : 1.437
  14. Frame rate mode                          : Constant
  15. Frame rate                               : 25.000 fps
  16. Color space                              : YUV
  17. Chroma subsampling                       : 4:2:0
  18. Bit depth                                : 8 bits
  19. Scan type                                : Progressive
  20. Bits/(Pixel*Frame)                       : 0.209
  21. Stream size                              : 6.28GB (96%)
  22. Writing library                          : x264 core 152 r2851 ba24899
  23. Encoding settings                        : cabac=1 / ref=4 / deblock=1:0:0 / analyse=0x3:0x133 / me=umh / subme=7 / psy=1 / psy_rd=1.00:0.00 / mixed_ref=1 / me_range=16 / chroma_me=1 / trellis=1 / 8x8dct=1 / cqm=0 / deadzone=21,11 / fast_pskip=0 / chroma_qp_offset=-2 / threads=24 / lookahead_threads=4 / sliced_threads=0 / nr=0 / decimate=1 / interlaced=0 / bluray_compat=0 / constrained_intra=0 / bframes=3 / b_pyramid=2 / b_adapt=1 / b_bias=0 / direct=1 / weightb=1 / open_gop=0 / weightp=2 / keyint=250 / keyint_min=25 / scenecut=40 / intra_refresh=0 / rc_lookahead=40 / rc=2pass / mbtree=1 / bitrate=8777 / ratetol=1.0 / qcomp=0.60 / qpmin=0 / qpmax=69 / qpstep=4 / cplxblur=20.0 / qblur=0.5 / ip_ratio=1.40 / aq=1:1.00
  24. Language                                 : Polish
  25. Default                                  : Yes
  26. Forced                                   : No

  27. Audio
  28. ID                                       : 2
  29. Format                                   : AC-3
  30. Format/Info                              : Audio Coding 3
  31. Mode extension                           : CM (complete main)
  32. Format settings, Endianness              : Big
  33. Codec ID                                 : A_AC3
  34. Duration                                 : 1h 42mn
  35. Bit rate mode                            : Constant
  36. Bit rate                                 : 384 Kbps
  37. Channel(s)                               : 2 channels
  38. Channel positions                        : Front: L R
  39. Sampling rate                            : 48.0 KHz
  40. Frame rate                               : 31.250 fps (1536 spf)
  41. Compression mode                         : Lossy
  42. Stream size                              : 281 MiB (4%)
  43. Language                                 : Polish
  44. Default                                  : Yes
  45. Forced                                   : No

  46. Text
  47. ID                                       : 3
  48. Format                                   : UTF-8
  49. Codec ID                                 : S_TEXT/UTF8
  50. Codec ID/Info                            : UTF-8 Plain Text
  51. Duration                                 : 1h 38mn
  52. Bit rate                                 : 32 bps
  53. Count of elements                        : 762
  54. Stream size                              : 23.5 KiB (0%)
  55. Language                                 : English
  56. Default                                  : Yes
  57. Forced                                   : Yes




复制代码
复制代码
012534t7r3j8rmmn8gj76r.jpg





回复

使用道具 举报

懒得打字嘛,点击右侧快捷回复 【右侧内容,后台自定义】
您需要登录后才可以回帖 登录 | 立即加入

本版积分规则

Archiver| |网站地图

Copyright © 2024 Comsenz Inc. Powered by 蓝光电影网

本站内容由用户自主分享和转载自互联网,转载目的在于传递更多信息,并不代表本网赞同其观点和对其真实性负责。

如有侵权、违反国家法律政策行为,请联系我们,我们会第一时间及时清除和处理!

举报反馈邮箱:4k1080.com@gmail.com

快速回复 返回顶部 返回列表