找回密码

查看: 3013|回复: 0

[剧情] 奥赛罗 Othello.1951.REMASTERED.1080p.BluRay.x264-USURY 8.75GB

[复制链接]
蓝光币
1982
发表于 2017-12-19 19:35:36 | 显示全部楼层 |阅读模式
020239hbki11ptnn1p1u98.jpg
◎译  名 奥赛罗
◎片  名 奥赛罗 The Tragedy of Othello: The Moor of Venice
◎年  代 1951
◎国  家 美国 / 意大利 / 法国 / 摩洛哥
◎类  别 剧情 / 恋爱
◎语  言 英语
◎上映日期 1951-11-28(意大利)
◎IMDb评分  7.8/10 from 5,831 users
◎IMDb链接  http://www.imdb.com/title/tt0045251/
◎豆瓣评分 7.8/10 from 723 users
◎豆瓣链接 https://movie.douban.com/subject/1296289/
◎片  长 90 分钟 / USA: 93 分钟(TCM print)
◎导  演 奥逊·威尔斯
◎主  演 Micheál MacLiammóir
      罗伯托·库特 Robert Coote
      奥逊·威尔斯 Orson Welles
      Suzanne Cloutier
      Hilton Edwards
      Nicholas Bruce
      Michael Laurence
      费伊·康普顿 Fay Compton
      多利斯·道灵 Doris Dowling

◎简  介 

  奥赛罗(奥逊·威尔斯 Orson Welles 饰)生来高峻威武,是一员猛将。某日,他碰见了元老的女儿苔丝狄蒙娜(Suzanne Cloutier 饰),一见钟情的两人敏捷坠入了爱河。但是,庞大的年龄差异让两人的恋爱遭到了众人的激烈否决,亲事亦指日可待,两个相爱的人决议私定毕生。
  凶险狡猾的伊阿古(Micheál MacLiammóir 饰)将风头正劲的奥赛罗视为眼中钉,诡计除之尔后快。在向元老告发的诡计失利以后,伊阿古起头教唆奥赛罗和苔丝狄蒙娜之间的豪情,他捏造了副将凯斯奥(Michael Laurence 饰)和苔丝狄蒙娜之间的定情信物,使得奥赛罗信以为真。愤慨的奥赛罗将苔丝狄蒙娜掐死,却在以后得知了全部事务的真相,悲痛和懊悔当中,奥赛罗挑选了灭亡。

◎获奖情况 

  第5届戛纳电影节 (1952)
  主比赛单元 金棕榈奖 奥逊·威尔斯



  1. Video
  2. ID                                       : 1
  3. Format                                   : AVC
  4. Format/Info                              : Advanced Video Codec
  5. Format profile                           : [email]High@L4.1[/email]
  6. Format settings, CABAC                   : Yes
  7. Format settings, ReFrames                : 4 frames
  8. Codec ID                                 : V_MPEG4/ISO/AVC
  9. Duration                                 : 1h 30mn
  10. Bit rate                                 : 13.1 Mbps
  11. Width                                    : 1 488 pixels
  12. Height                                   : 1 080 pixels
  13. Display aspect ratio                     : 1.378
  14. Frame rate mode                          : Constant
  15. Frame rate                               : 23.976 (24000/1001) fps
  16. Color space                              : YUV
  17. Chroma subsampling                       : 4:2:0
  18. Bit depth                                : 8 bits
  19. Scan type                                : Progressive
  20. Bits/(Pixel*Frame)                       : 0.341
  21. Stream size                              : 8.35GB (95%)
  22. Writing library                          : x264 core 152 r2851 ba24899
  23. Encoding settings                        : cabac=1 / ref=4 / deblock=1:-3:-3 / analyse=0x3:0x133 / me=umh / subme=9 / psy=1 / psy_rd=1.00:0.00 / mixed_ref=1 / me_range=16 / chroma_me=1 / trellis=2 / 8x8dct=1 / cqm=0 / deadzone=21,11 / fast_pskip=0 / chroma_qp_offset=-2 / threads=18 / lookahead_threads=1 / sliced_threads=0 / nr=0 / decimate=1 / interlaced=0 / bluray_compat=0 / constrained_intra=0 / bframes=3 / b_pyramid=2 / b_adapt=1 / b_bias=0 / direct=3 / weightb=1 / open_gop=0 / weightp=2 / keyint=240 / keyint_min=24 / scenecut=40 / intra_refresh=0 / rc_lookahead=50 / rc=2pass / mbtree=1 / bitrate=13140 / ratetol=1.0 / qcomp=0.60 / qpmin=0 / qpmax=69 / qpstep=4 / cplxblur=20.0 / qblur=0.5 / ip_ratio=1.40 / aq=1:1.00
  24. Language                                 : English
  25. Default                                  : Yes
  26. Forced                                   : No

  27. Audio
  28. ID                                       : 2
  29. Format                                   : FLAC
  30. Format/Info                              : Free Lossless Audio Codec
  31. Codec ID                                 : A_FLAC
  32. Duration                                 : 1h 30mn
  33. Bit rate mode                            : Variable
  34. Bit rate                                 : 621 Kbps
  35. Channel(s)                               : 1 channel
  36. Channel positions                        : Front: C
  37. Sampling rate                            : 48.0 KHz
  38. Frame rate                               : 11.719 fps (4096 spf)
  39. Bit depth                                : 24 bits
  40. Stream size                              : 404 MiB (5%)
  41. Writing library                          : libFLAC 1.2.1 (UTC 2007-09-17)
  42. Language                                 : English
  43. Default                                  : Yes
  44. Forced                                   : No

  45. Text #1
  46. ID                                       : 3
  47. Format                                   : UTF-8
  48. Codec ID                                 : S_TEXT/UTF8
  49. Codec ID/Info                            : UTF-8 Plain Text
  50. Duration                                 : 1h 24mn
  51. Bit rate                                 : 68 bps
  52. Count of elements                        : 1169
  53. Stream size                              : 42.1 KiB (0%)
  54. Title                                    : English
  55. Language                                 : English
  56. Default                                  : No
  57. Forced                                   : No

  58. Text #2
  59. ID                                       : 4
  60. Format                                   : UTF-8
  61. Codec ID                                 : S_TEXT/UTF8
  62. Codec ID/Info                            : UTF-8 Plain Text
  63. Duration                                 : 1h 26mn
  64. Bit rate                                 : 69 bps
  65. Count of elements                        : 1245
  66. Stream size                              : 43.9 KiB (0%)
  67. Title                                    : English SDH
  68. Language                                 : English
  69. Default                                  : No
  70. Forced                                   : No

  71. Menu
  72. 00:00:00.000                             : en:00:00:00.000
  73. 00:04:28.935                             : en:00:04:28.935
  74. 00:05:27.661                             : en:00:05:27.661
  75. 00:13:31.019                             : en:00:13:31.019
  76. 00:16:14.682                             : en:00:16:14.682
  77. 00:19:23.037                             : en:00:19:23.037
  78. 00:23:40.753                             : en:00:23:40.753
  79. 00:28:48.143                             : en:00:28:48.143
  80. 00:32:56.600                             : en:00:32:56.600
  81. 00:40:58.706                             : en:00:40:58.706
  82. 00:45:41.197                             : en:00:45:41.197
  83. 00:52:04.955                             : en:00:52:04.955
  84. 00:57:47.464                             : en:00:57:47.464
  85. 01:00:23.286                             : en:01:00:23.286
  86. 01:03:37.063                             : en:01:03:37.063
  87. 01:07:14.864                             : en:01:07:14.864
  88. 01:12:41.983                             : en:01:12:41.983
  89. 01:15:15.428                             : en:01:15:15.428
  90. 01:20:44.965                             : en:01:20:44.965
  91. 01:26:06.703                             : en:01:26:06.703
  92. 01:29:53.430                             : en:01:29:53.430




复制代码
复制代码
020239sucx6u79x9dcd0zd.jpg






回复

使用道具 举报

懒得打字嘛,点击右侧快捷回复 【右侧内容,后台自定义】
您需要登录后才可以回帖 登录 | 立即加入

本版积分规则

Archiver| |网站地图

Copyright © 2024 Comsenz Inc. Powered by 蓝光电影网

本站内容由用户自主分享和转载自互联网,转载目的在于传递更多信息,并不代表本网赞同其观点和对其真实性负责。

如有侵权、违反国家法律政策行为,请联系我们,我们会第一时间及时清除和处理!

举报反馈邮箱:4k1080.com@gmail.com

快速回复 返回顶部 返回列表