找回密码

查看: 28711|回复: 13

[剧情] 完整版.西西里的美丽传说.Malena.2000.IT.UNCUT.BluRay.1920x816p.x264.DTS-KOOK.[中英双字] 9.

  [复制链接]
蓝光币
1992
发表于 2017-12-19 20:47:00 | 显示全部楼层 |阅读模式
完整版.西西里的美丽传闻.Malena.2000.IT.UNCUT.BluRay.1920x816p.x264.DTS-KOOK.[中英双字] 9.52GB
192930jyjytl4llf543o44.jpg
192931jura828t592umbxb.jpg
※※※※※※※ 影片信息 ※※※※※※※
◎片   名 Malèna
◎译   名 西西里的美丽传闻 / 真爱伴我行 / 玛莲娜 / 玛琳娜
◎年   代 2000
◎国   家 意大利
◎类   别 剧情 / 情色 / 战争
◎语   言 意大利语
◎上映日 期 2000-10-27(意大利)
◎字   幕 中英双字/简体字幕/繁体字幕/英笔墨幕
◎IMDB 评分  7.5/10 from 72205 users
◎豆瓣 评分  8.7/10 from 349598 users
◎视频尺 寸  1920x816p
◎片   长 1.48.04
◎导   演 朱塞佩·托纳多雷
◎编     剧  朱塞佩·托纳多雷
◎主   演 莫妮卡·贝鲁奇 / 朱塞佩·苏尔法罗 / Luciano Federico / Matilde Piana / 埃丽萨·莫鲁奇

◎简  介
  当我还只是十三岁时,1941年春末的那一天,我初度见到了她那一天,墨索里尼向英法宣战,而我,获得了生命里的第一辆脚踏车。
  她,撩著海浪状黑亮的秀发,穿著最时兴的短裙和丝袜,踏著布满情欲引诱的高跟鞋,来到了西西里岛上安好的阳光小镇。她的一举一动都引人注视、勾人联想,她的一颦一笑都教汉子心醉、女人羡妒。玛莲娜,像个女神一般,征服了这个海滨的天堂乐园。
  年仅十三岁的雷纳多也不由自立地掉进了玛莲娜所掀起的漩涡当中,他不但跟著其他年数较大的青少年们一路骑著单车,穿越在小镇的各个角落,搜寻著玛莲娜的诱人风姿与万种风情,还静静地成为她不知情的小仆从,跬步不离地跟监、窥视她的生活。她摇摆的倩影、她凝听的音乐、她贴身的衣物都成为这个被荷尔蒙沉没的少年,最实在、最美好的情欲空想。
  但是,透过雷纳多的眼,我们也看到了玛莲娜掉进了越来越黑暗的处境当中,她酿成了孀妇,而在镇民们的眼中,她也成了彻完全底的祸水,带来了淫欲、妒忌与忿怒,而一股夹杂著情欲与激愤的风暴,起头袭卷这个连战争都不曾侵扰的小镇。
  玛莲娜一步步地沉溺,与父亲隔离了关系、被送上法院,更落空了一切的财富,这使得历来天真、不经世事的雷纳多,被迫面临这质朴小镇中,民气的残暴无情,看著已经一无一切的玛莲娜,雷纳多竟兴起了他所不曾有过的勇气,决议靠著他自己的气力,以一种教人难以料想的方式,来帮助玛莲娜走诞生命的泥沼……
※※※※※※※ 参数信息 ※※※※※※※
General
Unique ID                      : 226772723789284523275769748051045048808 (0xAA9AD682AF82EC54A9346E313262E1E8)
Format                         : Matroska
Format version                 : Version 4 / Version 2
File size                      : 9.53GB
Duration                       : 1 h 48 min
Overall bit rate               : 12.6 Mb/s
Encoded date                   : UTC 2017-11-08 23:19:12
Writing application            : mkvmerge v9.4.2 ( So High ) 64bit
Writing library                : libebml v1.3.4 + libmatroska v1.4.5
Attachments                    : msyhbd.ttf / msyh.ttf / 正式海报 2.jpg
Video
ID                             : 1
Format                         : AVC
Format/Info                    : Advanced Video Codec
Format profile                 : High@L4.1
Format settings, CABAC         : Yes
Format settings, ReFrames      : 5 frames
Codec ID                       : V_MPEG4/ISO/AVC
Duration                       : 1 h 48 min
Bit rate                       : 11.1 Mb/s
Width                          : 1 920 pixels
Height                         : 816 pixels
Display aspect ratio           : 2.35:1
Frame rate mode                : Constant
Frame rate                     : 23.976 FPS
Color space                    : YUV
Chroma subsampling             : 4:2:0
Bit depth                      : 8 bits
Scan type                      : Progressive
Bits/(Pixel*Frame)             : 0.295
Stream size                    : 8.35GB (88%)
Title                          : Malena.2000.UNCUT.BluRay.1080p.DTS.x264-CHD
Writing library                : x264 core 125 r2208 d9d2288
Encoding settings              : cabac=1 / ref=5 / deblock=1:-3:-3 / analyse=0x3:0x113 / me=umh / subme=10 / psy=1 / psy_rd=1.05:0.10 / mixed_ref=1 / me_range=32 / chroma_me=1 / trellis=2 / 8x8dct=1 / cqm=0 / deadzone=21,11 / fast_pskip=0 / chroma_qp_offset=-2 / threads=8 / lookahead_threads=1 / sliced_threads=0 / nr=0 / decimate=1 / interlaced=0 / bluray_compat=0 / constrained_intra=0 / bframes=6 / b_pyramid=2 / b_adapt=2 / b_bias=0 / direct=3 / weightb=1 / open_gop=0 / weightp=2 / keyint=250 / keyint_min=23 / scenecut=40 / intra_refresh=0 / rc=2pass / mbtree=0 / bitrate=11073 / ratetol=1.0 / qcomp=0.70 / qpmin=0 / qpmax=69 / qpstep=4 / cplxblur=20.0 / qblur=0.5 / ip_ratio=1.40 / pb_ratio=1.30 / aq=2:1.00
Language                       : Italian
Default                        : Yes
Forced                         : No
Audio
ID                             : 2
Format                         : DTS
Format/Info                    : Digital Theater Systems
Mode                           : 16
Format settings, Endianness    : Big
Codec ID                       : A_DTS
Duration                       : 1 h 48 min
Bit rate mode                  : Constant
Bit rate                       : 1 509 kb/s
Channel(s)                     : 6 channels
Channel positions              : Front: L C R, Side: L R, LFE
Sampling rate                  : 48.0 kHz
Frame rate                     : 93.750 FPS (512 spf)
Bit depth                      : 24 bits
Compression mode               : Lossy
Stream size                    : 1.14GB (12%)
Title                          : dts 5.1 1536kbps
Language                       : Italian
Default                        : Yes
Forced                         : No
Text #1
ID                             : 3
Format                         : ASS
Codec ID                       : S_TEXT/ASS
Codec ID/Info                  : Advanced Sub Station Alpha
Duration                       : 1 h 45 min
Bit rate                       : 191 b/s
Count of elements              : 708
Compression mode               : Lossless
Stream size                    : 148 KiB (0%)
Title                          : 中英字幕
Language                       : Chinese
Default                        : Yes
Forced                         : No
Text #2
ID                             : 4
Format                         : ASS
Codec ID                       : S_TEXT/ASS
Codec ID/Info                  : Advanced Sub Station Alpha
Duration                       : 1 h 45 min
Bit rate                       : 107 b/s
Count of elements              : 708
Compression mode               : Lossless
Stream size                    : 83.4 KiB (0%)
Title                          : 简体字幕
Language                       : Chinese
Default                        : No
Forced                         : No
Text #3
ID                             : 5
Format                         : ASS
Codec ID                       : S_TEXT/ASS
Codec ID/Info                  : Advanced Sub Station Alpha
Duration                       : 1 h 45 min
Bit rate                       : 107 b/s
Count of elements              : 708
Compression mode               : Lossless
Stream size                    : 83.4 KiB (0%)
Title                          : 繁体字幕
Language                       : Chinese
Default                        : No
Forced                         : No
Text #4
ID                             : 6
Format                         : ASS
Codec ID                       : S_TEXT/ASS
Codec ID/Info                  : Advanced Sub Station Alpha
Duration                       : 1 h 44 min
Bit rate                       : 112 b/s
Count of elements              : 704
Compression mode               : Lossless
Stream size                    : 85.9 KiB (0%)
Title                          : 英笔墨幕
Language                       : English
Default                        : No
Forced                         : No
192932pgejawffgyy0j3a7.jpg
                                                                                                                                                                                             






回复

使用道具 举报

蓝光币
115
发表于 2019-12-17 15:24:29 | 显示全部楼层

其实我一直觉得楼主的品味不错!呵呵!蓝光电影网太棒了!
回复

使用道具 举报

蓝光币
103
发表于 2020-11-22 14:46:05 | 显示全部楼层

感谢楼主的无私分享!要想蓝光电影网好 就靠你我他
回复

使用道具 举报

蓝光币
103
发表于 2020-12-3 12:35:21 | 显示全部楼层

这东西我收了!谢谢楼主!蓝光电影网真好!
回复

使用道具 举报

蓝光币
3
发表于 2022-5-22 01:42:47 | 显示全部楼层
楼主发贴辛苦了,谢谢楼主分享!我觉得蓝光电影网是注册对了!
回复

使用道具 举报

蓝光币
39
发表于 2022-9-12 00:55:10 | 显示全部楼层
感谢楼主的无私分享!
回复

使用道具 举报

蓝光币
42
发表于 2023-8-9 10:15:22 | 显示全部楼层
这东西我收了!谢谢楼主!蓝光电影网真好!
回复

使用道具 举报

蓝光币
2
发表于 2023-8-31 17:01:38 | 显示全部楼层
楼主发贴辛苦了,谢谢楼主分享!我觉得蓝光电影网是注册对了!
回复

使用道具 举报

头像被屏蔽
蓝光币
0
发表于 2023-9-10 06:57:13 | 显示全部楼层
提示: 该帖被管理员或版主屏蔽
回复

使用道具 举报

蓝光币
319
发表于 2023-9-10 09:18:25 | 显示全部楼层
蓝光网很nice,谢谢楼主
回复

使用道具 举报

懒得打字嘛,点击右侧快捷回复 【右侧内容,后台自定义】
您需要登录后才可以回帖 登录 | 立即加入

本版积分规则

Archiver| |网站地图

Copyright © 2024 Comsenz Inc. Powered by 蓝光电影网

本站内容由用户自主分享和转载自互联网,转载目的在于传递更多信息,并不代表本网赞同其观点和对其真实性负责。

如有侵权、违反国家法律政策行为,请联系我们,我们会第一时间及时清除和处理!

举报反馈邮箱:4k1080.com@gmail.com

快速回复 返回顶部 返回列表