找回密码

查看: 4135|回复: 7

[动画] 动画短片.暴力云与送子鹳.Partly Cloudy.2009.US.BluRay.1920x1080p.x264.AC3-KOOK 481M

[复制链接]
蓝光币
1982
发表于 2017-12-19 20:59:07 | 显示全部楼层 |阅读模式
动画短片.暴力云与送子鹳.Partly Cloudy.2009.US.BluRay.1920x1080p.x264.AC3-KOOK 481M
095658t9zdecogg5kd9199.jpg
※※※※※※※ 影片信息 ※※※※※※※
◎片   名 Partly Cloudy
◎译   名 暴力云与送子鹳 / 部分多云 / 部分多云
◎年   代 2009
◎国   家 美国
◎类   别 笑剧 / 动画 / 短片 / 奇异
◎语   言 英语
◎上映日 期 2009-05-29(美国)
◎字   幕 简体字幕
◎IMDB 评分  8.2/10 from 15995 users
◎豆瓣 评分  9.2/10 from 80011 users
◎视频尺 寸  1920x1080p
◎片   长 00.05.49
◎导   演 Peter Sohn
◎编     剧  Jermaine Ka mell
◎主   演 Tony Fucile / Lori Richardson

◎简  介
  皮克斯2009《飞屋周游记》加映短片。
  在西方传闻中有一种鸟名字叫“鹳”,这类鸟是输送孩子的。可是“鹳”输送的孩子又是从哪来的呢?本来,在天空的云层中,有生命的云朵们缔造了这些“孩子”,而在这么多缔造生命的云朵中,有一朵忧伤的“阴云”,它的名字叫“Gus”。它的拿手是缔造那些“进犯性很强”的孩子,比如鳄鱼宝宝,凶悍的豪猪宝宝和山羊宝宝。而它的伙伴Peck,一只鹳负责输送Gus的“作品”到人世。可是随着Gus的缔造越来越疯狂,Peck输送这些“危险品”的使命变得越难越难,每次返来都是遍体鳞伤。直到一次,当Gus捧着一个鲨鱼宝宝交给他,已经精疲力竭的Peck吓得远远的飞走了,而Gus悲伤地哭了起来……
※※※※※※※ 参数信息 ※※※※※※※
General
Unique ID                      : 209536498919509630333366062035652287131 (0x9DA343036E88CC2CB567E9EC70A39A9B)
Format                         : Matroska
Format version                 : Version 4 / Version 2
File size                      : 482 MiB
Duration                       : 5 min
Overall bit rate               : 11.6 Mb/s
Encoded date                   : UTC 2017-11-11 00:48:45
Writing application            : mkvmerge v9.4.2 ( So High ) 64bit
Writing library                : libebml v1.3.4 + libmatroska v1.4.5
Attachments                    : 正式海报.jpg / msyhbd.ttf / msyh.ttf
Video
ID                             : 1
Format                         : AVC
Format/Info                    : Advanced Video Codec
Format profile                 : High@L4.1
Format settings, CABAC         : Yes
Format settings, ReFrames      : 4 frames
Codec ID                       : V_MPEG4/ISO/AVC
Duration                       : 5 min
Bit rate                       : 10.1 Mb/s
Width                          : 1 920 pixels
Height                         : 1 080 pixels
Display aspect ratio           : 16:9
Frame rate mode                : Constant
Frame rate                     : 23.976 FPS
Color space                    : YUV
Chroma subsampling             : 4:2:0
Bit depth                      : 8 bits
Scan type                      : Progressive
Bits/(Pixel*Frame)             : 0.203
Stream size                    : 420 MiB (87%)
Title                          : Partly.Cloudy.2009.BluRay.1080p.AC3.x264-CHD
Writing library                : x264 core 78 r1301M bcba15d
Encoding settings              : cabac=1 / ref=4 / deblock=1:-3:-3 / analyse=0x3:0x113 / me=umh / subme=9 / psy=1 / psy_rd=1.0:0.0 / mixed_ref=1 / me_range=32 / chroma_me=1 / trellis=2 / 8x8dct=1 / cqm=2 / deadzone=21,11 / chroma_qp_offset=0 / threads=6 / nr=0 / decimate=1 / mbaff=0 / constrained_intra=0 / bframes=3 / b_pyramid=0 / b_adapt=2 / b_bias=0 / direct=3 / wpredb=1 / keyint=250 / keyint_min=25 / scenecut=40 / rc_lookahead=40 / rc=2pass / mbtree=1 / bitrate=10090 / ratetol=1.0 / qcomp=0.60 / qpmin=10 / qpmax=51 / qpstep=4 / cplxblur=20.0 / qblur=0.5 / vbv_maxrate=55000 / vbv_bufsize=50000 / ip_ratio=1.40 / aq=2:1.00
Language                       : English
Default                        : Yes
Forced                         : Yes
Audio
ID                             : 2
Format                         : AC-3
Format/Info                    : Audio Coding 3
Mode extension                 : CM (complete main)
Format settings, Endianness    : Big
Codec ID                       : A_AC3
Duration                       : 5 min
Bit rate mode                  : Constant
Bit rate                       : 640 kb/s
Channel(s)                     : 6 channels
Channel positions              : Front: L C R, Side: L R, LFE
Sampling rate                  : 48.0 kHz
Frame rate                     : 31.250 FPS (1536 spf)
Compression mode               : Lossy
Stream size                    : 26.6 MiB (6%)
Title                          : AC3 EX 5.1CH 640Kbps
Language                       : English
Default                        : Yes
Forced                         : Yes
Text
ID                             : 3
Format                         : ASS
Codec ID                       : S_TEXT/ASS
Codec ID/Info                  : Advanced Sub Station Alpha
Duration                       : 5 min
Bit rate                       : 23 b/s
Count of elements              : 5
Compression mode               : Lossless
Stream size                    : 928 Bytes (0%)
Language                       : Chinese
Default                        : Yes
Forced                         : No
095659q885a684p8ykjja8.jpg





回复

使用道具 举报

蓝光币
12
发表于 2023-12-22 07:31:38 | 显示全部楼层

楼主太厉害了!楼主,电影应该很好看我觉得蓝光电影网真是个好地方!
回复

使用道具 举报

懒得打字嘛,点击右侧快捷回复 【右侧内容,后台自定义】
您需要登录后才可以回帖 登录 | 立即加入

本版积分规则

Archiver| |网站地图

Copyright © 2024 Comsenz Inc. Powered by 蓝光电影网

本站内容由用户自主分享和转载自互联网,转载目的在于传递更多信息,并不代表本网赞同其观点和对其真实性负责。

如有侵权、违反国家法律政策行为,请联系我们,我们会第一时间及时清除和处理!

举报反馈邮箱:4k1080.com@gmail.com

快速回复 返回顶部 返回列表