找回密码

查看: 3980|回复: 5

[惊悚] 年轻的亚当.Young Adam.2003.UK.FR.BluRay.1920x816p.x264.DTS-KOOK.[中英双字] 8.77GB

[复制链接]
蓝光币
1984
发表于 2017-12-19 21:32:29 | 显示全部楼层 |阅读模式
年轻的亚当.Young Adam.2003.UK.FR.BluRay.1920x816p.x264.DTS-KOOK.[中英双字] 8.77GB
195134s6arc6a8cck6ffji.jpg
※※※※※※※ 影片信息 ※※※※※※※
◎片   名 Young Adam
◎译   名 年轻的亚当
◎年   代 2003
◎国   家 英国 / 法国
◎类   别 剧情 / 惊悚 / 情色 / 犯罪
◎语   言 英语
◎上映日 期 2003-09-26(英国)
◎字   幕 中英双字/简体字幕/繁体字幕/英笔墨幕
◎IMDB 评分  6.5/10 from 12095 users
◎豆瓣 评分  7.2/10 from 4732 users
◎视频尺 寸  1920x816p
◎片   长 1.37.44
◎导   演 大卫·马肯兹
◎编     剧  Alexander Trocchi / 大卫·马肯兹
◎主   演 伊万·麦克格雷格 / 蒂尔达·斯文顿 / 艾米莉·莫迪默

◎简  介
  工人阶级身世的文学青年祖儿(伊万.麦克戈雷格 Ewan McGregor 饰)在驳船主里斯佳耦的船上打工并和佳耦二人一路生活在船上。一天,祖儿在岸边发现水里浮起了一具已经发白的女尸,惊慌的祖儿和里斯捞起了女尸。
  当晚,祖儿在和里斯佳耦吃饭的时辰讲了白天捞起女尸的工作,并对女仆人艾娜(蒂尔达.斯温顿 Tilda Swinton 饰)各式蛊惑,在丈夫身上得不到满足、常日阴森烦闷的艾娜晚饭后就和祖儿搭上了。祖儿再一次提起了女尸的工作。
  本来,女尸生前曾是祖儿的情人。随着祖儿的回忆,工作一幕幕揭开……
※※※※※※※ 参数信息 ※※※※※※※
General
Unique ID                      : 238499322127153502744488480965373254864 (0xB36D4C725D7CB3A8ACA2D9396DFCDCD0)
Format                         : Matroska
Format version                 : Version 4 / Version 2
File size                      : 8.78GB
Duration                       : 1h 37mn
Overall bit rate               : 12.9 Mbps
Encoded date                   : UTC 2017-11-14 02:57:30
Writing application            : mkvmerge v7.7.0 ( Six Voices ) 32bit built on Feb 28 2015 23:23:00
Writing library                : libebml v1.3.1 + libmatroska v1.4.2
Attachements                   : 正式海报 .jpg / msyh.ttf / msyhbd.ttf
Video
ID                             : 1
Format                         : AVC
Format/Info                    : Advanced Video Codec
Format profile                 : High@L4.1
Format settings, CABAC         : Yes
Format settings, ReFrames      : 5 frames
Codec ID                       : V_MPEG4/ISO/AVC
Duration                       : 1h 37mn
Bit rate                       : 11.3 Mbps
Width                          : 1 920 pixels
Height                         : 816 pixels
Display aspect ratio           : 2.35:1
Frame rate mode                : Constant
Frame rate                     : 24.000 fps
Color space                    : YUV
Chroma subsampling             : 4:2:0
Bit depth                      : 8 bits
Scan type                      : Progressive
Bits/(Pixel*Frame)             : 0.301
Stream size                    : 7.71GB (88%)
Title                          : kook
Writing library                : x264 core 138 r2358kMod 9e941d1
Encoding settings              : cabac=1 / ref=5 / deblock=1:-3:-3 / analyse=0x3:0x133 / me=umh / subme=8 / psy=1 / fade_compensate=0.00 / psy_rd=1.00:0.15 / mixed_ref=1 / me_range=16 / chroma_me=1 / trellis=1 / 8x8dct=1 / cqm=0 / deadzone=21,11 / fast_pskip=0 / chroma_qp_offset=-3 / threads=12 / lookahead_threads=2 / sliced_threads=0 / nr=0 / decimate=1 / interlaced=0 / bluray_compat=0 / constrained_intra=0 / bframes=3 / b_pyramid=2 / b_adapt=2 / b_bias=0 / direct=3 / weightb=1 / open_gop=0 / weightp=2 / keyint=240 / keyint_min=24 / scenecut=40 / intra_refresh=0 / rc_lookahead=50 / rc=2pass / mbtree=1 / bitrate=11300 / ratetol=1.0 / qcomp=0.60 / qpmin=0 / qpmax=69 / qpstep=4 / cplxblur=20.0 / qblur=0.5 / ip_ratio=1.40 / aq=1:1.00
Language                       : English
Default                        : Yes
Forced                         : No
Audio
ID                             : 2
Format                         : DTS
Format/Info                    : Digital Theater Systems
Mode                           : 16
Format settings, Endianness    : Big
Codec ID                       : A_DTS
Duration                       : 1h 37mn
Bit rate mode                  : Constant
Bit rate                       : 1 509 Kbps
Channel(s)                     : 6 channels
Channel positions              : Front: L C R, Side: L R, LFE
Sampling rate                  : 48.0 KHz
Frame rate                     : 93.750 fps (512 spf)
Bit depth                      : 24 bits
Compression mode               : Lossy
Stream size                    : 1.03GB (12%)
Language                       : English
Default                        : Yes
Forced                         : No
Text #1
ID                             : 3
Format                         : ASS
Codec ID                       : S_TEXT/ASS
Codec ID/Info                  : Advanced Sub Station Alpha
Duration                       : 1h 33mn
Bit rate                       : 99 bps
Count of elements              : 669
Compression mode               : Lossless
Stream size                    : 68.5 KiB (0%)
Title                          : 中英字幕
Language                       : Chinese
Default                        : Yes
Forced                         : No
Text #2
ID                             : 4
Format                         : ASS
Codec ID                       : S_TEXT/ASS
Codec ID/Info                  : Advanced Sub Station Alpha
Duration                       : 1h 33mn
Bit rate                       : 51 bps
Count of elements              : 669
Compression mode               : Lossless
Stream size                    : 35.2 KiB (0%)
Title                          : 简体字幕
Language                       : Chinese
Default                        : No
Forced                         : No
Text #3
ID                             : 5
Format                         : ASS
Codec ID                       : S_TEXT/ASS
Codec ID/Info                  : Advanced Sub Station Alpha
Duration                       : 1h 33mn
Bit rate                       : 51 bps
Count of elements              : 669
Compression mode               : Lossless
Stream size                    : 35.2 KiB (0%)
Title                          : 繁体字幕
Language                       : Chinese
Default                        : No
Forced                         : No
Text #4
ID                             : 6
Format                         : ASS
Codec ID                       : S_TEXT/ASS
Codec ID/Info                  : Advanced Sub Station Alpha
Duration                       : 1h 33mn
Bit rate                       : 73 bps
Count of elements              : 653
Compression mode               : Lossless
Stream size                    : 50.5 KiB (0%)
Title                          : 英笔墨幕
Language                       : English
Default                        : No
Forced                         : No
Menu
00:00:00.000                   : en:00:00:00.000
00:11:01.000                   : en:00:11:01.000
00:22:27.500                   : en:00:22:27.500
00:25:59.208                   : en:00:25:59.208
00:29:34.000                   : en:00:29:34.000
00:31:40.042                   : en:00:31:40.042
00:35:27.125                   : en:00:35:27.125
00:40:14.625                   : en:00:40:14.625
00:43:15.667                   : en:00:43:15.667
00:47:33.542                   : en:00:47:33.542
00:55:21.875                   : en:00:55:21.875
01:01:39.958                   : en:01:01:39.958
01:04:18.000                   : en:01:04:18.000
01:10:37.750                   : en:01:10:37.750
01:14:57.208                   : en:01:14:57.208
01:18:54.458                   : en:01:18:54.458
01:22:44.500                   : en:01:22:44.500
01:29:18.000                   : en:01:29:18.000
01:31:25.167                   : en:01:31:25.167
01:33:48.083                   : en:01:33:48.083
195136pzbzaj7kmp71ijps.jpg





回复

使用道具 举报

懒得打字嘛,点击右侧快捷回复 【右侧内容,后台自定义】
您需要登录后才可以回帖 登录 | 立即加入

本版积分规则

Archiver| |网站地图

Copyright © 2024 Comsenz Inc. Powered by 蓝光电影网

本站内容由用户自主分享和转载自互联网,转载目的在于传递更多信息,并不代表本网赞同其观点和对其真实性负责。

如有侵权、违反国家法律政策行为,请联系我们,我们会第一时间及时清除和处理!

举报反馈邮箱:4k1080.com@gmail.com

快速回复 返回顶部 返回列表